[MINI Super-HQ] Cats (Cats and Peachtopia) (2018) ก๊วนเหมียวหง่าว [1080p] [พากย์ไทย 5.1 + เสียงอังกฤษ DTS] [บรรยายไทย + อังกฤษ] [เสียงไทย + ซับไทย] [PANDAFILE]

0

โหลดหนัง Cats (Cats and Peachtopia) (2018) ก๊วนเหมียวหง่าว

Cats (2018) 1h 27min | Animation, Adventure, Comedy | 24 January 2020 (USA) Summary: A cat named Blanket lives in the city with his son, Cape. One day, Cape decides to leave home and embarks on an adventure to find the legendary cat's paradise. To find his son, Blanket must overcome his fear and reconcile with his past.
Countries: ChinaLanguages: Chinese

เรื่องย่อ Cats (Cats and Peachtopia) (2018) ก๊วนเหมียวหง่าว

เรื่องราวที่สื่อถึง การเติบโต โดยใช้ครอบครัวเป็นเครื่องมือการเล่าเรื่อง ในการผจญภัยของแบล็งเคตและเคปนั้นเคปเป็นเสมือนสัญลักษณ์ที่บ่งบอกถึงความมุ่งมั่นในการเดินตามความฝันของวัยเด็ก ส่วนแบล็งเคตคือสัญลักษณ์ที่บ่งบอกความสำคัญของพ่อในฐานะผู้มีหน้าที่อบรมเลี้ยงดูบุตรตัวละครสำคัญอีกตัวหนึ่งที่ขาดไม่ได้คือแมวดำ มีหน้าที่เสมือนผู้สังเกตการณ์ ทำให้เรารับรู้ถึงการเติบโตของแบล็งเคตจากเด็กจนพัฒนาเป็นผู้ใหญ่ และได้เห็นการถ่ายทอดความหมายของคำว่าการเติบโตไปให้เคปลูกชายของเขา!!!!

Complete name : [MINI Super-HQ]_Cats.and.Peachtopia.2018.1080p.BrRip.x264.THD.One2loadup.com.mkv
Format : Matroska
Format version : Version 4
File size : 5.73 GiB
Duration : 1 h 27 min
Overall bit rate : 9 404 kb/s
Movie name : [MINI Super-HQ]_Cats.and.Peachtopia.2018.1080p.BrRip.x264.THD.One2loadup.com
Encoded date : UTC 2020-06-20 11:36:58
Writing application : mkvmerge v40.0.0 (‘Old Town Road + Pony’) 64-bit
Writing library : libebml v1.3.9 + libmatroska v1.5.2

Video
ID : 1
Format : AVC
Format/Info : Advanced Video Codec
Format profile : [email protected]
Format settings : CABAC / 5 Ref Frames
Format settings, CABAC : Yes
Format settings, ReFrames : 5 frames
Codec ID : V_MPEG4/ISO/AVC
Duration : 1 h 27 min
Bit rate : 7 449 kb/s
Width : 1 920 pixels
Height : 800 pixels
Display aspect ratio : 2.40:1
Frame rate mode : Constant
Frame rate : 24.000 FPS
Color space : YUV
Chroma subsampling : 4:2:0
Bit depth : 8 bits
Scan type : Progressive
Bits/(Pixel*Frame) : 0.202
Stream size : 4.54 GiB (79%)
Title : [MINI Super-HQ]_Cats.and.Peachtopia.2018.1080p.BrRip.x264.THD.One2loadup.com
Writing library : x264 core 157 r2969 d4099dd
Encoding settings : cabac=1 / ref=5 / deblock=1:-1:-1 / analyse=0x3:0x133 / me=umh / subme=10 / psy=1 / psy_rd=0.95:0.00 / mixed_ref=1 / me_range=24 / chroma_me=1 / trellis=2 / 8x8dct=1 / cqm=0 / deadzone=21,11 / fast_pskip=0 / chroma_qp_offset=-4 / threads=18 / lookahead_threads=1 / sliced_threads=0 / slices=4 / nr=0 / decimate=1 / interlaced=0 / bluray_compat=0 / constrained_intra=0 / bframes=3 / b_pyramid=2 / b_adapt=2 / b_bias=0 / direct=3 / weightb=1 / open_gop=0 / weightp=2 / keyint=240 / keyint_min=24 / scenecut=40 / intra_refresh=0 / rc=2pass / mbtree=0 / bitrate=7449 / ratetol=2.0 / qcomp=0.60 / qpmin=0 / qpmax=69 / qpstep=4 / cplxblur=20.0 / qblur=0.5 / ip_ratio=1.40 / pb_ratio=1.30 / aq=2:0.80
Language : English
Default : Yes
Forced : No

Audio #1
ID : 2
Format : AC-3
Format/Info : Audio Coding 3
Commercial name : Dolby Digital
Codec ID : A_AC3
Duration : 1 h 27 min
Bit rate mode : Constant
Bit rate : 448 kb/s
Channel(s) : 6 channels
Channel layout : L R C LFE Ls Rs
Sampling rate : 48.0 kHz
Frame rate : 31.250 FPS (1536 SPF)
Bit depth : 16 bits
Compression mode : Lossy
Delay relative to video : 17 s 100 ms
Stream size : 279 MiB (5%)
Title : Thai DVD Master 5.1
Language : Thai
Service kind : Complete Main
Default : Yes
Forced : No

Audio #2
ID : 3
Format : DTS
Format/Info : Digital Theater Systems
Codec ID : A_DTS
Duration : 1 h 27 min
Bit rate mode : Constant
Bit rate : 1 509 kb/s
Channel(s) : 6 channels
Channel layout : C L R Ls Rs LFE
Sampling rate : 48.0 kHz
Frame rate : 93.750 FPS (512 SPF)
Bit depth : 24 bits
Compression mode : Lossy
Stream size : 942 MiB (16%)
Title : English DTS
Language : English
Default : No
Forced : Yes

Text #1
ID : 4
Format : VobSub
Codec ID : S_VOBSUB
Codec ID/Info : Picture based subtitle format used on DVDs
Duration : 1 h 22 min
Bit rate : 3 687 b/s
Count of elements : 740
Stream size : 2.18 MiB (0%)
Title : Thai DVD Master
Language : Thai
Default : Yes
Forced : No

Text #2
ID : 5
Format : UTF-8
Codec ID : S_TEXT/UTF8
Codec ID/Info : UTF-8 Plain Text
Duration : 1 h 26 min
Bit rate : 35 b/s
Count of elements : 1002
Stream size : 22.6 KiB (0%)
Title : English
Language : English
Default : No
Forced : No

Menu
00:00:00.000 : it:Capitolo 01
00:04:26.708 : it:Capitolo 02
00:08:16.958 : it:Capitolo 03
00:12:11.708 : it:Capitolo 04
00:16:42.833 : it:Capitolo 05
00:21:00.708 : it:Capitolo 06
00:24:57.166 : it:Capitolo 07
00:28:55.666 : it:Capitolo 08
00:33:15.333 : it:Capitolo 09
00:37:32.416 : it:Capitolo 10
00:41:37.416 : it:Capitolo 11
00:46:38.500 : it:Capitolo 12
00:50:34.750 : it:Capitolo 13
00:54:45.000 : it:Capitolo 14
00:59:32.166 : it:Capitolo 15
01:03:41.916 : it:Capitolo 16
01:08:18.291 : it:Capitolo 17
01:13:20.416 : it:Capitolo 18
01:17:26.541 : it:Capitolo 19
01:23:26.875 : it:Capitolo 20

DOWNLOAD


PART01 |||| PART02 |||| PART03 |||| PART04 |||| PART05 |||| PART06

PART01 |||| PART02 |||| PART03 |||| PART04 |||| PART05 |||| PART06

PART01 |||| PART02 |||| PART03 |||| PART04 |||| PART05 |||| PART06

PART01 |||| PART02 |||| PART03 |||| PART04 |||| PART05 |||| PART06

PART01 |||| PART02 |||| PART03 |||| PART04 |||| PART05 |||| PART06



Disable Comments
%d bloggers like this: