[MINI Super-HQ] Boy Erased (2018) [1080p] [พากย์อังกฤษ DTS] [Soundtrack บรรยายไทย + อังกฤษ] [เสียงอังกฤษ + ซับไทย] [OPENLOAD]

0

Boy Erased (2018)

โหลดหนัง  Boy Erased (2018)

Boy Erased (2018) 1h 55min | Biography, Drama | 8 November 2018 (Australia) Summary: The son of a Baptist preacher is forced to participate in a church-supported gay conversion program after being forcibly outed to his parents.
Countries: Australia, USALanguages: English

เรื่องย่อ Boy Erased (2018)

เจเร็ด เอมอนส์ (ลูคัส เฮดจ์ส) เด็กหนุ่มวัย 18 ปี ลูกชายของแนนซี่ เอมอนส์ (นิโคล คิดแมน) และมาร์แชล เอมอนส์ (รัสเซล โครว์) นักเทศน์ในศาสนาคริสต์นิกายโปรแตสแตนต์ในเมืองเล็กๆ ของอเมริกาเขาได้สารภาพถึงความรู้สึกของตัวเองถึงความสนใจในเพศเดียวกันมากกว่าเพศตรงข้ามพ่อแม่ของเขาจึงได้ส่งเขาเข้าไปบำบัดเพื่อเปลี่ยนแปลงความคิดดังกล่าวเรื่องราวการต่อสู้ของเด็กหนุ่มคนหนึ่งเพื่อค้นหาตัวเอง ท่ามกลางความกดดันที่บีบบังคับให้เขาต้องตั้งคำถามกับทุกแง่มุมในตัวตนของเขา!!!

Complete name : [MINI Super-HQ]_Boy.Erased.2018.1080p.BrRip.DTS.x264.Subthai.One2loadup.com.mkv
Format : Matroska
Format version : Version 4
File size : 3.84 GiB
Duration : 1 h 54 min
Overall bit rate : 4 787 kb/s
Movie name : [MINI Super-HQ]_Boy.Erased.2018.1080p.BrRip.DTS.x264.Subthai.One2loadup.com
Encoded date : UTC 2010-02-22 21:41:31
Writing application : mkvmerge v5.9.0 (‘On The Loose’) built on Dec 9 2012 15:37:01
Writing library : libebml v1.3.0 + libmatroska v1.4.0

Video
ID : 1
Format : AVC
Format/Info : Advanced Video Codec
Format profile : [email protected]
Format settings : CABAC / 4 Ref Frames
Format settings, CABAC : Yes
Format settings, ReFrames : 4 frames
Codec ID : V_MPEG4/ISO/AVC
Duration : 1 h 54 min
Bit rate : 3 938 kb/s
Width : 1 920 pixels
Height : 1 040 pixels
Display aspect ratio : 1.85:1
Frame rate mode : Constant
Frame rate : 23.976 (24000/1001) FPS
Color space : YUV
Chroma subsampling : 4:2:0
Bit depth : 8 bits
Scan type : Progressive
Bits/(Pixel*Frame) : 0.082
Stream size : 3.16 GiB (82%)
Title : [MINI Super-HQ]_Boy.Erased.2018.1080p.BrRip.DTS.x264.Subthai.One2loadup.com
Writing library : x264 core 130 r2273 b3065e6
Encoding settings : cabac=1 / ref=3 / deblock=1:0:0 / analyse=0x3:0x113 / me=umh / subme=11 / psy=1 / psy_rd=1.00:0.00 / mixed_ref=1 / me_range=48 / chroma_me=1 / trellis=2 / 8x8dct=1 / cqm=0 / deadzone=21,11 / fast_pskip=1 / chroma_qp_offset=-2 / threads=10 / lookahead_threads=1 / sliced_threads=0 / nr=0 / decimate=1 / interlaced=0 / bluray_compat=0 / constrained_intra=0 / bframes=3 / b_pyramid=2 / b_adapt=1 / b_bias=0 / direct=1 / weightb=1 / open_gop=0 / weightp=2 / keyint=240 / keyint_min=24 / scenecut=40 / intra_refresh=0 / rc_lookahead=40 / rc=2pass / mbtree=1 / bitrate=3938 / ratetol=1.0 / qcomp=0.60 / qpmin=0 / qpmax=69 / qpstep=4 / cplxblur=20.0 / qblur=0.5 / ip_ratio=1.40 / aq=1:1.00
Language : English
Default : Yes
Forced : No
Color range : Limited
Color primaries : BT.709
Transfer characteristics : BT.709
Matrix coefficients : BT.709

Audio
ID : 2
Format : DTS
Format/Info : Digital Theater Systems
Codec ID : A_DTS
Duration : 1 h 54 min
Bit rate mode : Constant
Bit rate : 755 kb/s
Channel(s) : 6 channels
Channel layout : C L R Ls Rs LFE
Sampling rate : 48.0 kHz
Frame rate : 93.750 FPS (512 SPF)
Bit depth : 24 bits
Compression mode : Lossy
Stream size : 619 MiB (16%)
Title : English DTS
Language : English
Default : Yes
Forced : No

Text #1
ID : 3
Format : VobSub
Codec ID : S_VOBSUB
Codec ID/Info : Picture based subtitle format used on DVDs
Language : Thai
Default : Yes
Forced : Yes

Text #2
ID : 4
Format : VobSub
Codec ID : S_VOBSUB
Codec ID/Info : Picture based subtitle format used on DVDs
Title : Thai 480p
Language : Thai
Default : No
Forced : No

Text #3
ID : 5
Format : VobSub
Codec ID : S_VOBSUB
Codec ID/Info : Picture based subtitle format used on DVDs
Title : Thai 720p
Language : Thai
Default : No
Forced : No

Text #4
ID : 6
Format : VobSub
Codec ID : S_VOBSUB
Codec ID/Info : Picture based subtitle format used on DVDs
Title : Thai 1080p
Language : Thai
Default : No
Forced : No

Text #5
ID : 7
Format : VobSub
Codec ID : S_VOBSUB
Codec ID/Info : Picture based subtitle format used on DVDs
Title : Thai 1080p Yellow
Language : Thai
Default : No
Forced : No

Text #6
ID : 8
Format : VobSub
Codec ID : S_VOBSUB
Codec ID/Info : Picture based subtitle format used on DVDs
Title : Thai 1080p BIG
Language : Thai
Default : No
Forced : No

Text #7
ID : 9
Format : PGS
Codec ID : S_HDMV/PGS
Codec ID/Info : Picture based subtitle format used on BDs/HD-DVDs
Title : Thai PGS BluRay Master
Language : Thai
Default : No
Forced : No

Text #8
ID : 10
Format : PGS
Codec ID : S_HDMV/PGS
Codec ID/Info : Picture based subtitle format used on BDs/HD-DVDs
Title : English
Language : English
Default : No
Forced : No

Menu
00:00:00.000 : en:Chapter 1
00:04:40.405 : en:Chapter 2
00:10:40.139 : en:Chapter 3
00:18:15.886 : en:Chapter 4
00:22:47.950 : en:Chapter 5
00:30:43.800 : en:Chapter 6
00:42:08.359 : en:Chapter 7
00:46:27.868 : en:Chapter 8
00:53:50.519 : en:Chapter 9
00:57:50.801 : en:Chapter 10
01:02:15.565 : en:Chapter 11
01:06:35.116 : en:Chapter 12
01:11:49.847 : en:Chapter 13
01:15:43.998 : en:Chapter 14
01:20:59.521 : en:Chapter 15
01:25:29.207 : en:Chapter 16
01:29:59.853 : en:Chapter 17
01:34:30.081 : en:Chapter 18
01:41:24.411 : en:Chapter 19
01:48:41.181 : en:Chapter 20

DOWNLOAD


PART01 |||| PART02 |||| PART03 |||| PART04

PART01 |||| PART02 |||| PART03 |||| PART04

PART01 |||| PART02 |||| PART03 |||| PART04

PART01 |||| PART02 |||| PART03 |||| PART04


Leave A Reply

Your email address will not be published.

%d bloggers like this: