[MINI Super-HQ] Bohemian Rhapsody (2018) โบฮีเมียน แรปโซดี [1080p] [พากย์ไทย 5.1 + เสียงอังกฤษ DTS] [บรรยายไทย + อังกฤษ] [เสียงไทย + ซับไทย] [OPENLOAD]

0

Bohemian Rhapsody (2018) โบฮีเมียน แรปโซดี

โหลดหนัง Bohemian Rhapsody (2018) โบฮีเมียน แรปโซดี

Bohemian Rhapsody (2018) 2h 14min | Biography, Drama, Music | 2 November 2018 (Canada) Summary: The story of the legendary rock band Queen and lead singer Freddie Mercury, leading up to their famous performance at Live Aid (1985).
Countries: UK, USALanguages: English

เรื่องย่อ Bohemian Rhapsody (2018) โบฮีเมียน แรปโซดี

สำหรับวง Queen วงร็อคที่ยิ่งใหญ่ตลอดกาล ที่ครั้งนี้พวกเขากลับมาในภาพยนตร์เรื่อง Bohemian Rhapsody ซึ่งล่าสุดได้ส่งตัวอย่างใหม่ออกมาให้แฟน ๆ ได้ชมกันอีกแล้ว พร้อมเผยเรื่องราวของร็อคเกอร์ในตำนานอย่าง เฟร็ดดี้ เมอร์คูรี่ หนึ่งในสมาชิกวง Queen ที่ไม่ใช่แค่หน้าตาเท่านั้นที่ทำให้เขากลายเป็นศิลปินขวัญใจแฟน ๆ แต่เสียงอันทรงพลังและการแต่งกายสีสันบาดตา มันก็ทำให้เขากลายเป็นบุคคลที่น่าจดจำไม่แพ้กัน
Bohemian Rhapsody ได้หยิบเรื่องราวชีวประวัติที่น่าสนใจของ เฟร็ดดี้ เมอร์คูรี่ มาถ่ายทอดบนจอยักษ์ให้แฟน ๆ ได้ชมกันโดยฝีมือผู้กำกับ เด็กซ์เตอร์ เฟลทเชอร์ ผู้อยู่เบื้องหลัง Eddie the Eagle (2016) ที่เขาได้เข้ามาแทนที่ ไบรอัน ซิงเกอร์ซึ่งโดนปลดจากโปรเจ็คนี้จากการหายไปจากกองถ่ายหลายต่ อหลายครั้งโดยไม่แจ้งเหตุผล พร้อมได้นักแสดงหนุ่ม รามี มาเลค (Rami Malek) ที่โด่งดังจากซีรีส์ Mr. Robot ที่ครั้งนี้เขาได้เปลี่ยนลุคโดยการรับบทเป็นตัวละครสำคัญอย่าง เฟร็ดดี้ เมอร์คูรี่ อีกด้วย!!!

Complete name : [MINI Super-HQ]_Bohemian.Rhapsody.2018.1080p.BrRip.DTS.x264.One2loadup.com.mkv
Format : Matroska
Format version : Version 4
File size : 4.07 GiB
Duration : 2 h 14 min
Overall bit rate : 4 328 kb/s
Movie name : [MINI Super-HQ]_Bohemian.Rhapsody.2018.1080p.BrRip.DTS.x264.One2loadup.com
Encoded date : UTC 2010-02-22 21:41:31
Writing application : mkvmerge v5.9.0 (‘On The Loose’) built on Dec 9 2012 15:37:01
Writing library : libebml v1.3.0 + libmatroska v1.4.0

Video
ID : 1
Format : AVC
Format/Info : Advanced Video Codec
Format profile : [email protected]
Format settings : CABAC / 4 Ref Frames
Format settings, CABAC : Yes
Format settings, ReFrames : 4 frames
Codec ID : V_MPEG4/ISO/AVC
Duration : 2 h 14 min
Bit rate : 3 003 kb/s
Width : 1 920 pixels
Height : 804 pixels
Display aspect ratio : 2.40:1
Frame rate mode : Constant
Frame rate : 23.976 (24000/1001) FPS
Color space : YUV
Chroma subsampling : 4:2:0
Bit depth : 8 bits
Scan type : Progressive
Bits/(Pixel*Frame) : 0.081
Stream size : 2.92 GiB (72%)
Title : [MINI Super-HQ]_Bohemian.Rhapsody.2018.1080p.BrRip.DTS.x264.One2loadup.com
Writing library : x264 core 130 r2273 b3065e6
Encoding settings : cabac=1 / ref=3 / deblock=1:0:0 / analyse=0x3:0x113 / me=umh / subme=11 / psy=1 / psy_rd=1.00:0.00 / mixed_ref=1 / me_range=48 / chroma_me=1 / trellis=2 / 8x8dct=1 / cqm=0 / deadzone=21,11 / fast_pskip=1 / chroma_qp_offset=-2 / threads=10 / lookahead_threads=1 / sliced_threads=0 / nr=0 / decimate=1 / interlaced=0 / bluray_compat=0 / constrained_intra=0 / bframes=3 / b_pyramid=2 / b_adapt=1 / b_bias=0 / direct=1 / weightb=1 / open_gop=0 / weightp=2 / keyint=240 / keyint_min=24 / scenecut=40 / intra_refresh=0 / rc_lookahead=40 / rc=2pass / mbtree=1 / bitrate=3003 / ratetol=1.0 / qcomp=0.60 / qpmin=0 / qpmax=69 / qpstep=4 / cplxblur=20.0 / qblur=0.5 / ip_ratio=1.40 / aq=1:1.00
Language : English
Default : Yes
Forced : No
Color range : Limited
Color primaries : BT.709
Transfer characteristics : BT.709
Matrix coefficients : BT.709

Audio #1
ID : 2
Format : AC-3
Format/Info : Audio Coding 3
Commercial name : Dolby Digital
Codec ID : A_AC3
Duration : 2 h 14 min
Bit rate mode : Constant
Bit rate : 384 kb/s
Channel(s) : 6 channels
Channel layout : L R C LFE Ls Rs
Sampling rate : 48.0 kHz
Frame rate : 31.250 FPS (1536 SPF)
Bit depth : 16 bits
Compression mode : Lossy
Stream size : 370 MiB (9%)
Title : Thai DVD Master
Language : Thai
Service kind : Complete Main
Default : Yes
Forced : Yes

Audio #2
ID : 3
Format : DTS
Format/Info : Digital Theater Systems
Codec ID : A_DTS
Duration : 2 h 14 min
Bit rate mode : Constant
Bit rate : 755 kb/s
Channel(s) : 6 channels
Channel layout : C L R Ls Rs LFE
Sampling rate : 48.0 kHz
Frame rate : 93.750 FPS (512 SPF)
Bit depth : 24 bits
Compression mode : Lossy
Stream size : 726 MiB (17%)
Title : English DTS
Language : English
Default : No
Forced : No

Text #1
ID : 4
Format : VobSub
Codec ID : S_VOBSUB
Codec ID/Info : Picture based subtitle format used on DVDs
Title : Thai 480p
Language : Thai
Default : No
Forced : No

Text #2
ID : 5
Format : VobSub
Codec ID : S_VOBSUB
Codec ID/Info : Picture based subtitle format used on DVDs
Title : Thai 720p
Language : Thai
Default : No
Forced : No

Text #3
ID : 6
Format : VobSub
Codec ID : S_VOBSUB
Codec ID/Info : Picture based subtitle format used on DVDs
Title : Thai 1080p Master
Language : Thai
Default : Yes
Forced : Yes

Text #4
ID : 7
Format : VobSub
Codec ID : S_VOBSUB
Codec ID/Info : Picture based subtitle format used on DVDs
Title : Thai 1080p Yellow
Language : Thai
Default : No
Forced : No

Text #5
ID : 8
Format : VobSub
Codec ID : S_VOBSUB
Codec ID/Info : Picture based subtitle format used on DVDs
Title : Thai 1080p Out
Language : Thai
Default : No
Forced : No

Text #6
ID : 9
Format : VobSub
Codec ID : S_VOBSUB
Codec ID/Info : Picture based subtitle format used on DVDs
Title : Thai 1080p Out [BIG]
Language : Thai
Default : No
Forced : No

Text #7
ID : 10
Format : PGS
Codec ID : S_HDMV/PGS
Codec ID/Info : Picture based subtitle format used on BDs/HD-DVDs
Title : Thai PGS
Language : Thai
Default : No
Forced : No

Text #8
ID : 11
Format : PGS
Codec ID : S_HDMV/PGS
Codec ID/Info : Picture based subtitle format used on BDs/HD-DVDs
Title : Thai PGS Yellow
Language : Thai
Default : No
Forced : No

Text #9
ID : 12
Format : PGS
Codec ID : S_HDMV/PGS
Codec ID/Info : Picture based subtitle format used on BDs/HD-DVDs
Title : Thai PGS Out
Language : Thai
Default : No
Forced : No

Text #10
ID : 13
Format : PGS
Codec ID : S_HDMV/PGS
Codec ID/Info : Picture based subtitle format used on BDs/HD-DVDs
Title : English
Language : English
Default : No
Forced : No

Menu
00:00:00.000 : en:Chapter 1
00:03:48.895 : en:Chapter 2
00:07:45.465 : en:Chapter 3
00:11:16.634 : en:Chapter 4
00:17:41.811 : en:Chapter 5
00:21:03.179 : en:Chapter 6
00:27:24.184 : en:Chapter 7
00:33:34.846 : en:Chapter 8
00:37:22.282 : en:Chapter 9
00:45:24.013 : en:Chapter 10
00:52:19.595 : en:Chapter 11
00:56:57.205 : en:Chapter 12
01:03:11.413 : en:Chapter 13
01:10:44.991 : en:Chapter 14
01:15:25.896 : en:Chapter 15
01:21:45.901 : en:Chapter 16
01:26:59.214 : en:Chapter 17
01:32:18.199 : en:Chapter 18
01:36:44.006 : en:Chapter 19
01:43:25.574 : en:Chapter 20
01:50:23.325 : en:Chapter 21
01:54:23.064 : en:Chapter 22
02:00:41.109 : en:Chapter 23
02:07:53.332 : en:Chapter 24

DOWNLOAD


PART01 |||| PART02 |||| PART03 |||| PART04 |||| PART05

PART01 |||| PART02 |||| PART03 |||| PART04 |||| PART05

PART01 |||| PART02 |||| PART03 |||| PART04 |||| PART05

PART01 |||| PART02 |||| PART03 |||| PART04 |||| PART05


Leave A Reply

Your email address will not be published.

%d bloggers like this: