[MINI Super-HQ] Blast Beat (2020) บลาสต์ บีต [1080p] [พากย์ไทย 2.0 + เสียงสเปน 5.1] [บรรยายไทย + อังกฤษ] [เสียงไทยมาสเตอร์ + ซับไทย] [PANDAFILE]

0

โหลดหนัง Blast Beat (2020) บลาสต์ บีต

Blast Beat (2020) 105min | Drama | January 26, 2020 (United States) Summary:
Countries: United StatesLanguages: English, Spanish

เรื่องย่อ Blast Beat (2020) บลาสต์ บีต

เมื่อครอบครัวหนึ่งออกจากโคลอมเบียบ้านเกิดของตนไปยังสหรัฐอเมริกาในช่วงฤดูร้อนปี ’99 อัจฉริยะด้านวิทยาศาสตร์เมทัลเฮดและน้องชายผู้ไร้จุดหมายต้องดิ้นรนเพื่อทำให้ American Dream เข้ากับความจริงใหม่

Complete name : [MINI Super-HQ]_Blast.Beat.2020.1080p.WEB-DL.AC3.x264.THM.One2loadup.com.mkv
Format : Matroska
Format version : Version 4
File size : 3.98 GiB
Duration : 1 h 44 min
Overall bit rate : 5 432 kb/s
Movie name : [MINI Super-HQ]_Blast.Beat.2020.1080p.WEB-DL.AC3.x264.THM.One2loadup.com
Encoded date : UTC 2010-02-22 21:41:31
Writing application : mkvmerge v5.9.0 (‘On The Loose’) built on Dec 9 2012 15:37:01
Writing library : libebml v1.3.0 + libmatroska v1.4.0

Video
ID : 1
Format : AVC
Format/Info : Advanced Video Codec
Format profile : [email protected]
Format settings : CABAC / 4 Ref Frames
Format settings, CABAC : Yes
Format settings, Reference : 4 frames
Codec ID : V_MPEG4/ISO/AVC
Duration : 1 h 44 min
Bit rate : 4 492 kb/s
Width : 1 916 pixels
Height : 804 pixels
Display aspect ratio : 2.40:1
Frame rate mode : Constant
Frame rate : 23.976 (24000/1001) FPS
Color space : YUV
Chroma subsampling : 4:2:0
Bit depth : 8 bits
Scan type : Progressive
Bits/(Pixel*Frame) : 0.122
Stream size : 3.29 GiB (83%)
Title : [MINI Super-HQ]_Blast.Beat.2020.1080p.WEB-DL.AC3.x264.THM.One2loadup.com
Language : Spanish
Default : Yes
Forced : No

Audio #1
ID : 2
Format : AC-3
Format/Info : Audio Coding 3
Commercial name : Dolby Digital
Codec ID : A_AC3
Duration : 1 h 44 min
Bit rate mode : Constant
Bit rate : 384 kb/s
Channel(s) : 2 channels
Channel layout : L R
Sampling rate : 48.0 kHz
Frame rate : 31.250 FPS (1536 SPF)
Compression mode : Lossy
Stream size : 288 MiB (7%)
Title : Thai Master
Language : Thai
Service kind : Complete Main
Default : Yes
Forced : Yes

Audio #2
ID : 3
Format : AC-3
Format/Info : Audio Coding 3
Commercial name : Dolby Digital
Codec ID : A_AC3
Duration : 1 h 44 min
Bit rate mode : Constant
Bit rate : 448 kb/s
Channel(s) : 6 channels
Channel layout : L R C LFE Ls Rs
Sampling rate : 48.0 kHz
Frame rate : 31.250 FPS (1536 SPF)
Compression mode : Lossy
Delay relative to video : 28 ms
Stream size : 336 MiB (8%)
Title : Spanish AC3
Language : Spanish
Service kind : Complete Main
Default : No
Forced : No

Text #1
ID : 4
Format : VobSub
Codec ID : S_VOBSUB
Codec ID/Info : Picture based subtitle format used on DVDs
Title : Thai 1080p
Language : Thai
Default : Yes
Forced : Yes

Text #2
ID : 5
Format : VobSub
Codec ID : S_VOBSUB
Codec ID/Info : Picture based subtitle format used on DVDs
Title : Thai 1080p BIG
Language : Thai
Default : No
Forced : No

Text #3
ID : 6
Format : PGS
Codec ID : S_HDMV/PGS
Codec ID/Info : Picture based subtitle format used on BDs/HD-DVDs
Title : Thai PGS
Language : Thai
Default : No
Forced : No

Text #4
ID : 7
Format : PGS
Codec ID : S_HDMV/PGS
Codec ID/Info : Picture based subtitle format used on BDs/HD-DVDs
Title : Thai PGS Out
Language : Thai
Default : No
Forced : No

Text #5
ID : 8
Format : PGS
Codec ID : S_HDMV/PGS
Codec ID/Info : Picture based subtitle format used on BDs/HD-DVDs
Title : English
Language : English
Default : No
Forced : No

Menu
00:00:00.000 : en:1
00:05:35.043 : en:2
00:09:56.804 : en:3
00:17:41.477 : en:4
00:22:26.219 : en:5
00:28:01.429 : en:6
00:32:47.631 : en:7
00:42:19.952 : en:8
00:49:05.524 : en:9
00:54:27.386 : en:10
00:59:07.416 : en:11
01:06:06.209 : en:12
01:13:41.998 : en:13
01:17:59.964 : en:14
01:25:15.858 : en:15
01:33:56.336 : en:16

Cornfile ลบไฟล์ทิ้งทั้งหมดแล้ว ยกเลิกอัพCornfile has deleted all files. cancel upload


PART01 |||| PART02 |||| PART03 |||| PART04 |||| PART05

PART01 |||| PART02 |||| PART03 |||| PART04 |||| PART05

PART01 |||| PART02 |||| PART03 |||| PART04 |||| PART05

PART01 |||| PART02 |||| PART03 |||| PART04 |||| PART05

PART01 |||| PART02 |||| PART03 |||| PART04 |||| PART05


Leave A Reply

อีเมล์ของคุณจะไม่แสดงให้เห็น Your email address will not be published.

%d bloggers like this: