[MINI Super-HQ] Blackpink: Light Up the Sky (2020) [เป็นภาพยนตร์สารคดี] [1080p] [พากย์ไทย 5.1 + เสียงอังกฤษ 5.1] [บรรยายไทย + อังกฤษ] [เสียงไทยบรรยาย + ซับไทย + MultiSub] [DOSYAUPLOAD]

0

โหลดหนัง Blackpink: Light Up the Sky (2020)

Blackpink: Light Up the Sky (2020) 79min | Documentary, Music | 14 October 2020 (USA) Summary: Chart the meteoric rise of the South Korean girl group BLACKPINK in director Caroline Suh's documentary.
Countries: USALanguages: Korean, English, Thai

เรื่องย่อ Blackpink: Light Up the Sky (2020)

BLACKPINK เกิร์ลกรุ๊ปชื่อดังทะลุทุกสถิติจากเกาหลีร่วมบอกเล่า เรื่องราวทุกรายละเอียดเกี่ยวกับการต่อสู้ฝ่าฟันอุปสรรคยากลำบากบนเส้นทางความฝัน ก่อนจะโด่งดังเป็นพลุแตก

Complete name : [MINI Super-HQ]_Blackpink.Light.Up.the.Sky.2020.1080p.NF.WEB-DL.EAC3.x264.One2loadup.com.mkv
Format : Matroska
Format version : Version 4
File size : 4.86 GiB
Duration : 1 h 19 min
Overall bit rate mode : Variable
Overall bit rate : 8 740 kb/s
Movie name : [MINI Super-HQ]_Blackpink.Light.Up.the.Sky.2020.1080p.NF.WEB-DL.EAC3.x264.One2loadup.com
Encoded date : UTC 2021-02-20 14:57:34
Writing application : mkvmerge v53.0.0 (‘Fool’s Gold’) 64-bit
Writing library : libebml v1.4.1 + libmatroska v1.6.2

Video
ID : 1
Format : AVC
Format/Info : Advanced Video Codec
Format profile : [email protected]
Format settings : CABAC / 3 Ref Frames
Format settings, CABAC : Yes
Format settings, ReFrames : 3 frames
Codec ID : V_MPEG4/ISO/AVC
Duration : 1 h 19 min
Bit rate mode : Variable
Bit rate : 7 500 kb/s
Maximum bit rate : 11.2 Mb/s
Width : 1 920 pixels
Height : 1 080 pixels
Display aspect ratio : 16:9
Frame rate mode : Constant
Frame rate : 23.976 (24000/1001) FPS
Color space : YUV
Chroma subsampling : 4:2:0
Bit depth : 8 bits
Scan type : Progressive
Bits/(Pixel*Frame) : 0.151
Stream size : 4.10 GiB (84%)
Writing library : x264 core 148 r2722 1b0121b
Encoding settings : cabac=1 / ref=3 / deblock=1:0:0 / analyse=0x1:0x111 / me=umh / subme=10 / psy=1 / psy_rd=1.00:0.00 / mixed_ref=1 / me_range=24 / chroma_me=1 / trellis=2 / 8x8dct=0 / cqm=0 / deadzone=21,11 / fast_pskip=1 / chroma_qp_offset=-2 / threads=6 / lookahead_threads=1 / sliced_threads=0 / nr=0 / decimate=1 / interlaced=0 / bluray_compat=0 / stitchable=1 / constrained_intra=0 / bframes=2 / b_pyramid=0 / b_adapt=2 / b_bias=0 / direct=3 / weightb=1 / open_gop=0 / weightp=2 / keyint=250 / keyint_min=23 / scenecut=0 / intra_refresh=0 / rc_lookahead=48 / rc=2pass / mbtree=1 / bitrate=7500 / ratetol=1.0 / qcomp=0.50 / qpmin=6 / qpmax=51 / qpstep=4 / cplxblur=20.0 / qblur=0.5 / vbv_maxrate=11250 / vbv_bufsize=15000 / nal_hrd=vbr / filler=0 / ip_ratio=1.40 / aq=1:1.00
Default : Yes
Forced : No

Audio #1
ID : 2
Format : E-AC-3
Format/Info : Enhanced AC-3
Commercial name : Dolby Digital Plus
Codec ID : A_EAC3
Duration : 1 h 19 min
Bit rate mode : Constant
Bit rate : 640 kb/s
Channel(s) : 6 channels
Channel layout : L R C LFE Ls Rs
Sampling rate : 48.0 kHz
Frame rate : 31.250 FPS (1536 SPF)
Compression mode : Lossy
Stream size : 364 MiB (7%)
Title : AC-3 English
Language : English
Service kind : Complete Main
Default : No
Forced : No

Audio #2
ID : 3
Format : E-AC-3
Format/Info : Enhanced AC-3
Commercial name : Dolby Digital Plus
Codec ID : A_EAC3
Duration : 1 h 19 min
Bit rate mode : Constant
Bit rate : 640 kb/s
Channel(s) : 6 channels
Channel layout : L R C LFE Ls Rs
Sampling rate : 48.0 kHz
Frame rate : 31.250 FPS (1536 SPF)
Compression mode : Lossy
Stream size : 364 MiB (7%)
Title : AC-3 Thai คำอธิบายเสียง
Language : Thai
Service kind : Complete Main
Default : Yes
Forced : No

Text #1
ID : 4
Format : VobSub
Muxing mode : zlib
Codec ID : S_VOBSUB
Codec ID/Info : Picture based subtitle format used on DVDs
Duration : 1 h 19 min
Bit rate : 14.1 kb/s
Count of elements : 1107
Stream size : 7.97 MiB (0%)
Title : Sub Thai 1080p
Language : Thai
Default : No
Forced : No

Text #2
ID : 5
Format : UTF-8
Codec ID : S_TEXT/UTF8
Codec ID/Info : UTF-8 Plain Text
Duration : 1 h 19 min
Bit rate : 160 b/s
Count of elements : 1107
Stream size : 93.2 KiB (0%)
Title : Sub Thai SRT
Language : Thai
Default : Yes
Forced : No

Text #3
ID : 6
Format : PGS
Muxing mode : zlib
Codec ID : S_HDMV/PGS
Codec ID/Info : Picture based subtitle format used on BDs/HD-DVDs
Duration : 1 h 19 min
Bit rate : 45.7 kb/s
Count of elements : 2214
Stream size : 25.9 MiB (1%)
Title : Sub Thai PGS
Language : Thai
Default : No
Forced : No

Text #4
ID : 7
Format : VobSub
Muxing mode : zlib
Codec ID : S_VOBSUB
Codec ID/Info : Picture based subtitle format used on DVDs
Duration : 1 h 18 min
Bit rate : 20.0 kb/s
Count of elements : 1491
Stream size : 11.2 MiB (0%)
Title : Sub English 1080p
Language : English
Default : No
Forced : No

Text #5
ID : 8
Format : UTF-8
Codec ID : S_TEXT/UTF8
Codec ID/Info : UTF-8 Plain Text
Duration : 1 h 18 min
Bit rate : 103 b/s
Count of elements : 1491
Stream size : 59.7 KiB (0%)
Title : Sub English SRT
Language : English
Default : No
Forced : No

Text #6
ID : 9
Format : PGS
Muxing mode : zlib
Codec ID : S_HDMV/PGS
Codec ID/Info : Picture based subtitle format used on BDs/HD-DVDs
Duration : 1 h 18 min
Bit rate : 65.0 kb/s
Count of elements : 2982
Stream size : 36.6 MiB (1%)
Title : Sub English PGS
Language : English
Default : No
Forced : No

Text #7
ID : 10
Format : UTF-8
Codec ID : S_TEXT/UTF8
Codec ID/Info : UTF-8 Plain Text
Duration : 1 h 19 min
Bit rate : 123 b/s
Count of elements : 1460
Stream size : 71.5 KiB (0%)
Title : SDH
Language : Korean
Default : No
Forced : No

Text #8
ID : 11
Format : UTF-8
Codec ID : S_TEXT/UTF8
Codec ID/Info : UTF-8 Plain Text
Duration : 1 h 19 min
Bit rate : 123 b/s
Count of elements : 1167
Stream size : 71.7 KiB (0%)
Language : Arabic
Default : No
Forced : No

Text #9
ID : 12
Format : UTF-8
Codec ID : S_TEXT/UTF8
Codec ID/Info : UTF-8 Plain Text
Duration : 1 h 17 min
Bit rate : 76 b/s
Count of elements : 1088
Stream size : 43.5 KiB (0%)
Language : Czech
Default : No
Forced : No

Text #10
ID : 13
Format : UTF-8
Codec ID : S_TEXT/UTF8
Codec ID/Info : UTF-8 Plain Text
Duration : 1 h 19 min
Bit rate : 70 b/s
Count of elements : 1072
Stream size : 41.1 KiB (0%)
Language : Danish
Default : No
Forced : No

Text #11
ID : 14
Format : UTF-8
Codec ID : S_TEXT/UTF8
Codec ID/Info : UTF-8 Plain Text
Duration : 1 h 19 min
Bit rate : 75 b/s
Count of elements : 1129
Stream size : 44.1 KiB (0%)
Language : German
Default : No
Forced : No

Text #12
ID : 15
Format : UTF-8
Codec ID : S_TEXT/UTF8
Codec ID/Info : UTF-8 Plain Text
Duration : 1 h 19 min
Bit rate : 125 b/s
Count of elements : 1104
Stream size : 72.8 KiB (0%)
Language : Greek
Default : No
Forced : No

Text #13
ID : 16
Format : UTF-8
Codec ID : S_TEXT/UTF8
Codec ID/Info : UTF-8 Plain Text
Duration : 1 h 19 min
Bit rate : 69 b/s
Count of elements : 1145
Stream size : 40.6 KiB (0%)
Title : Latin American
Language : Spanish
Default : No
Forced : No

Text #14
ID : 17
Format : UTF-8
Codec ID : S_TEXT/UTF8
Codec ID/Info : UTF-8 Plain Text
Duration : 1 h 19 min
Bit rate : 74 b/s
Count of elements : 1108
Stream size : 43.3 KiB (0%)
Title : European
Language : Spanish
Default : No
Forced : No

Text #15
ID : 18
Format : UTF-8
Codec ID : S_TEXT/UTF8
Codec ID/Info : UTF-8 Plain Text
Duration : 1 h 19 min
Bit rate : 78 b/s
Count of elements : 1043
Stream size : 45.7 KiB (0%)
Language : Finnish
Default : No
Forced : No

Text #16
ID : 19
Format : UTF-8
Codec ID : S_TEXT/UTF8
Codec ID/Info : UTF-8 Plain Text
Duration : 1 h 19 min
Bit rate : 71 b/s
Count of elements : 1113
Stream size : 41.4 KiB (0%)
Language : French
Default : No
Forced : No

Text #17
ID : 20
Format : UTF-8
Codec ID : S_TEXT/UTF8
Codec ID/Info : UTF-8 Plain Text
Duration : 1 h 19 min
Bit rate : 123 b/s
Count of elements : 1136
Stream size : 71.5 KiB (0%)
Language : Hebrew
Default : No
Forced : No

Text #18
ID : 21
Format : UTF-8
Codec ID : S_TEXT/UTF8
Codec ID/Info : UTF-8 Plain Text
Duration : 1 h 19 min
Bit rate : 65 b/s
Count of elements : 1131
Stream size : 37.9 KiB (0%)
Language : Croatian
Default : No
Forced : No

Text #19
ID : 22
Format : UTF-8
Codec ID : S_TEXT/UTF8
Codec ID/Info : UTF-8 Plain Text
Duration : 1 h 19 min
Bit rate : 71 b/s
Count of elements : 1112
Stream size : 41.4 KiB (0%)
Language : Hungarian
Default : No
Forced : No

Text #20
ID : 23
Format : UTF-8
Codec ID : S_TEXT/UTF8
Codec ID/Info : UTF-8 Plain Text
Duration : 1 h 19 min
Bit rate : 77 b/s
Count of elements : 1133
Stream size : 44.8 KiB (0%)
Language : Indonesian
Default : No
Forced : No

Text #21
ID : 24
Format : UTF-8
Codec ID : S_TEXT/UTF8
Codec ID/Info : UTF-8 Plain Text
Duration : 1 h 19 min
Bit rate : 69 b/s
Count of elements : 1126
Stream size : 40.4 KiB (0%)
Language : Italian
Default : No
Forced : No

Text #22
ID : 25
Format : UTF-8
Codec ID : S_TEXT/UTF8
Codec ID/Info : UTF-8 Plain Text
Duration : 1 h 19 min
Bit rate : 73 b/s
Count of elements : 1169
Stream size : 42.5 KiB (0%)
Language : Japanese
Default : No
Forced : No

Text #23
ID : 26
Format : UTF-8
Codec ID : S_TEXT/UTF8
Codec ID/Info : UTF-8 Plain Text
Duration : 1 h 19 min
Bit rate : 57 b/s
Count of elements : 748
Stream size : 33.2 KiB (0%)
Language : Korean
Default : No
Forced : No

Text #24
ID : 27
Format : UTF-8
Codec ID : S_TEXT/UTF8
Codec ID/Info : UTF-8 Plain Text
Duration : 1 h 19 min
Bit rate : 70 b/s
Count of elements : 1044
Stream size : 40.9 KiB (0%)
Language : Malay
Default : No
Forced : No

Text #25
ID : 28
Format : UTF-8
Codec ID : S_TEXT/UTF8
Codec ID/Info : UTF-8 Plain Text
Duration : 1 h 19 min
Bit rate : 69 b/s
Count of elements : 1050
Stream size : 40.2 KiB (0%)
Language : Norwegian Bokmal
Default : No
Forced : No

Text #26
ID : 29
Format : UTF-8
Codec ID : S_TEXT/UTF8
Codec ID/Info : UTF-8 Plain Text
Duration : 1 h 19 min
Bit rate : 70 b/s
Count of elements : 1112
Stream size : 41.1 KiB (0%)
Language : Dutch
Default : No
Forced : No

Text #27
ID : 30
Format : UTF-8
Codec ID : S_TEXT/UTF8
Codec ID/Info : UTF-8 Plain Text
Duration : 1 h 19 min
Bit rate : 69 b/s
Count of elements : 1116
Stream size : 40.3 KiB (0%)
Language : Polish
Default : No
Forced : No

Text #28
ID : 31
Format : UTF-8
Codec ID : S_TEXT/UTF8
Codec ID/Info : UTF-8 Plain Text
Duration : 1 h 19 min
Bit rate : 69 b/s
Count of elements : 1086
Stream size : 40.5 KiB (0%)
Title : European
Language : Portuguese
Default : No
Forced : No

Text #29
ID : 32
Format : UTF-8
Codec ID : S_TEXT/UTF8
Codec ID/Info : UTF-8 Plain Text
Duration : 1 h 19 min
Bit rate : 74 b/s
Count of elements : 1137
Stream size : 43.1 KiB (0%)
Title : Brazilian
Language : Portuguese
Default : No
Forced : No

Text #30
ID : 33
Format : UTF-8
Codec ID : S_TEXT/UTF8
Codec ID/Info : UTF-8 Plain Text
Duration : 1 h 19 min
Bit rate : 80 b/s
Count of elements : 1089
Stream size : 46.5 KiB (0%)
Language : Romanian
Default : No
Forced : No

Text #31
ID : 34
Format : UTF-8
Codec ID : S_TEXT/UTF8
Codec ID/Info : UTF-8 Plain Text
Duration : 1 h 19 min
Bit rate : 117 b/s
Count of elements : 1144
Stream size : 68.4 KiB (0%)
Language : Russian
Default : No
Forced : No

Text #32
ID : 35
Format : UTF-8
Codec ID : S_TEXT/UTF8
Codec ID/Info : UTF-8 Plain Text
Duration : 1 h 19 min
Bit rate : 72 b/s
Count of elements : 959
Stream size : 42.3 KiB (0%)
Language : Swedish
Default : No
Forced : No

Text #33
ID : 36
Format : UTF-8
Codec ID : S_TEXT/UTF8
Codec ID/Info : UTF-8 Plain Text
Duration : 1 h 19 min
Bit rate : 73 b/s
Count of elements : 1099
Stream size : 42.8 KiB (0%)
Language : Turkish
Default : No
Forced : No

Text #34
ID : 37
Format : UTF-8
Codec ID : S_TEXT/UTF8
Codec ID/Info : UTF-8 Plain Text
Duration : 1 h 19 min
Bit rate : 102 b/s
Count of elements : 1136
Stream size : 59.4 KiB (0%)
Language : Vietnamese
Default : No
Forced : No

Text #35
ID : 38
Format : UTF-8
Codec ID : S_TEXT/UTF8
Codec ID/Info : UTF-8 Plain Text
Duration : 1 h 19 min
Bit rate : 75 b/s
Count of elements : 1173
Stream size : 43.6 KiB (0%)
Title : Simplified
Language : Chinese
Default : No
Forced : No

Text #36
ID : 39
Format : UTF-8
Codec ID : S_TEXT/UTF8
Codec ID/Info : UTF-8 Plain Text
Duration : 1 h 19 min
Bit rate : 71 b/s
Count of elements : 1153
Stream size : 41.4 KiB (0%)
Title : Traditional
Language : Chinese
Default : No
Forced : No

DOWNLOAD


PART01 |||| PART02 |||| PART03 |||| PART04 |||| PART05

PART01 |||| PART02 |||| PART03 |||| PART04 |||| PART05

PART01 |||| PART02 |||| PART03 |||| PART04 |||| PART05

PART01 |||| PART02 |||| PART03 |||| PART04 |||| PART05

PART01 |||| PART02 |||| PART03 |||| PART04 |||| PART05


Leave A Reply

Your email address will not be published.

%d bloggers like this: