[MINI Super-HQ] Better Days (2019) ไม่มีวัน ไม่มีฉัน ไม่มีเธอ [1080p] [พากย์ไทย 5.1 + เสียงจีน DTS] [บรรยายไทย + อังกฤษ] [เสียงไทย + ซับไทย] [PANDAFILE]

0

โหลดหนัง Better Days (2019) ไม่มีวัน ไม่มีฉัน ไม่มีเธอ

Shao nian de ni (2019) 2h 15min | Crime, Drama, Family | 25 October 2019 (China) Summary: A bullied teenage girl forms an unlikely friendship with a mysterious young man who protects her from her assailants, all while she copes with the pressures of her final examinations.
Countries: ChinaLanguages: Mandarin, English

เรื่องย่อ Better Days (2019) ไม่มีวัน ไม่มีฉัน ไม่มีเธอ

ช่วงเวลาสมัยเรียนมัธยมฯ อาจเป็นช่วงเวลาอันแสนสุขสำหรับคนจำนวนมากแต่สำหรับ เฉินเหนียน (โจวตงหยู) มันไม่ต่างอะไรกับการตกนรกทั้งเป็น เพราะหลังจากเพื่อนสนิทเสียชีวิตโดยมีต้นเหตุมาจากการกลั่นแกล้งในโรงเรียน เธอก็กลายเป็นเป้าหมายใหม่ โดนใครต่อใครทำร้ายทั้งร่างกายและจิตใจเสมอจนกระทั่ง เสี่ยวเป่ย (แจ็คสัน หยี) ก้าวเข้ามาในชีวิต จากภายนอก เสี่ยวเป่ย อาจดูเป็นผู้ชายแบดบอยมาดร้าย แต่ภายในเขามีจิตใจดีงาม และยังปฏิบัติต่อ เฉินเหนียน อย่างให้เกียรติที่สุดท่ามกลางผู้คนและสภาพสังคมอันโหดร้าย การมีเขาอยู่เคียงข้างคือกำลังใจในการใช้ชีวิตอยู่ต่ อ พร้อมกับความหวังถึงอนาคตภายหน้าที่ดีกว่าวันนี้ Better Days ออกฉายในอเมริกา พร้อมเสียงวิจารณ์ด้านบวก คะแนนจากเวปรีวิว Rotten Tomatoes 100% เต็ม นักวิจารณ์ฝั่งอเมริกา ต่างพร้อมใจกันยกให้ โจวตงหยู และ “ อี้หยางเชียนสี่ ” คือนักแสดงคนสำคัญที่ถ่ายทอดอารมณ์ของตัวละครออกมาใด ้อย่างสมบูรณ์แบบ เฉินเหนียน(โจวตงหยู จาก Us and Them, Soul Mate) เด็กสาววัยมัธยมที่เพื่อนสนิทเพียงคนเดียวของเธอตัดสินใจฆ่าตัวตายเพราะทนการถูกกลั่นแกล้งในโรงเรียนไม่ไหวหลังจากเหตุการณ์นั้น เฉินเหนียน ตกเป็นเป้าการกลั่นแกล้งของทุกคนในชั้นเรียน
ในคืนหนึ่งระหว่างทางกลับบ้าน เฉินเหนียน ได้ช่วยชีวิต เสี่ยวเป่ย(อี้หยางเชียนสี บอยแบนด์วง TFBOYS) ไว้โดยบังเอิญตั้งแต่นั้นมา เสี่ยวเป่ย ก็สัญญาที่จะปกป้องเธอตลอดไป ไม่ว่าจะต้องแลกด้วยอะไรก็ตาม!!!

Complete name : [MINI Super-HQ]_Better.days.2019.1080p.BrRip.DTS.x264.One2loadup.com.mkv
Format : Matroska
Format version : Version 4
File size : 4.09 GiB
Duration : 2 h 15 min
Overall bit rate : 4 318 kb/s
Movie name : [MINI Super-HQ]_Better.days.2019.1080p.BrRip.DTS.x264.One2loadup.com
Encoded date : UTC 2010-02-22 21:41:31
Writing application : mkvmerge v5.9.0 (‘On The Loose’) built on Dec 9 2012 15:37:01
Writing library : libebml v1.3.0 + libmatroska v1.4.0

Video
ID : 1
Format : AVC
Format/Info : Advanced Video Codec
Format profile : [email protected]
Format settings : CABAC / 4 Ref Frames
Format settings, CABAC : Yes
Format settings, ReFrames : 4 frames
Codec ID : V_MPEG4/ISO/AVC
Duration : 2 h 15 min
Bit rate : 3 003 kb/s
Width : 1 920 pixels
Height : 1 036 pixels
Display aspect ratio : 1.85:1
Frame rate mode : Constant
Frame rate : 24.000 FPS
Color space : YUV
Chroma subsampling : 4:2:0
Bit depth : 8 bits
Scan type : Progressive
Bits/(Pixel*Frame) : 0.063
Stream size : 2.87 GiB (70%)
Title : [MINI Super-HQ]_Better.days.2019.1080p.BrRip.DTS.x264.One2loadup.com
Writing library : x264 core 130 r2273 b3065e6
Encoding settings : cabac=1 / ref=3 / deblock=1:0:0 / analyse=0x3:0x113 / me=umh / subme=11 / psy=1 / psy_rd=1.00:0.00 / mixed_ref=1 / me_range=48 / chroma_me=1 / trellis=2 / 8x8dct=1 / cqm=0 / deadzone=21,11 / fast_pskip=1 / chroma_qp_offset=-2 / threads=24 / lookahead_threads=2 / sliced_threads=0 / nr=0 / decimate=1 / interlaced=0 / bluray_compat=0 / constrained_intra=0 / bframes=3 / b_pyramid=2 / b_adapt=1 / b_bias=0 / direct=1 / weightb=1 / open_gop=0 / weightp=2 / keyint=240 / keyint_min=24 / scenecut=40 / intra_refresh=0 / rc_lookahead=40 / rc=2pass / mbtree=1 / bitrate=3003 / ratetol=1.0 / qcomp=0.60 / qpmin=0 / qpmax=69 / qpstep=4 / cplxblur=20.0 / qblur=0.5 / ip_ratio=1.40 / aq=1:1.00
Language : Chinese
Default : Yes
Forced : No
Color range : Limited
Color primaries : BT.709
Transfer characteristics : BT.709
Matrix coefficients : BT.709

Audio #1
ID : 2
Format : AC-3
Format/Info : Audio Coding 3
Commercial name : Dolby Digital
Codec ID : A_AC3
Duration : 2 h 15 min
Bit rate mode : Constant
Bit rate : 448 kb/s
Channel(s) : 6 channels
Channel layout : L R C LFE Ls Rs
Sampling rate : 48.0 kHz
Frame rate : 31.250 FPS (1536 SPF)
Bit depth : 16 bits
Compression mode : Lossy
Stream size : 435 MiB (10%)
Title : Thai DVD Master
Language : Thai
Service kind : Complete Main
Default : Yes
Forced : Yes

Audio #2
ID : 3
Format : DTS
Format/Info : Digital Theater Systems
Codec ID : A_DTS
Duration : 2 h 15 min
Bit rate mode : Constant
Bit rate : 755 kb/s
Channel(s) : 6 channels
Channel layout : C L R Ls Rs LFE
Sampling rate : 48.0 kHz
Frame rate : 93.750 FPS (512 SPF)
Bit depth : 24 bits
Compression mode : Lossy
Delay relative to video : 2 s 0 ms
Stream size : 732 MiB (17%)
Title : Chinese DTS
Language : Chinese
Default : No
Forced : No

Text #1
ID : 4
Format : VobSub
Codec ID : S_VOBSUB
Codec ID/Info : Picture based subtitle format used on DVDs
Title : Thai 720p
Language : Thai
Default : No
Forced : No

Text #2
ID : 5
Format : VobSub
Codec ID : S_VOBSUB
Codec ID/Info : Picture based subtitle format used on DVDs
Title : Thai 1080p
Language : Thai
Default : Yes
Forced : Yes

Text #3
ID : 6
Format : VobSub
Codec ID : S_VOBSUB
Codec ID/Info : Picture based subtitle format used on DVDs
Title : Thai 1080p Yellow
Language : Thai
Default : No
Forced : No

Text #4
ID : 7
Format : VobSub
Codec ID : S_VOBSUB
Codec ID/Info : Picture based subtitle format used on DVDs
Title : Thai 1080p BIG
Language : Thai
Default : No
Forced : No

Text #5
ID : 8
Format : PGS
Codec ID : S_HDMV/PGS
Codec ID/Info : Picture based subtitle format used on BDs/HD-DVDs
Title : Thai PGS
Language : Thai
Default : No
Forced : No

Text #6
ID : 9
Format : PGS
Codec ID : S_HDMV/PGS
Codec ID/Info : Picture based subtitle format used on BDs/HD-DVDs
Title : Thai PGS Yellow
Language : Thai
Default : No
Forced : No

Text #7
ID : 10
Format : PGS
Codec ID : S_HDMV/PGS
Codec ID/Info : Picture based subtitle format used on BDs/HD-DVDs
Title : English
Language : English
Default : No
Forced : No

Menu
00:00:00.000 : en:Chapter 1
00:07:10.917 : en:Chapter 2
00:15:03.917 : en:Chapter 3
00:23:36.875 : en:Chapter 4
00:36:49.250 : en:Chapter 5
00:46:53.208 : en:Chapter 6
00:55:34.833 : en:Chapter 7
01:08:54.708 : en:Chapter 8
01:15:19.875 : en:Chapter 9
01:24:33.792 : en:Chapter 10
01:35:15.750 : en:Chapter 11
01:51:36.000 : en:Chapter 12
02:06:44.375 : en:Chapter 13

DOWNLOAD


PART01 |||| PART02 |||| PART03 |||| PART04 |||| PART05

PART01 |||| PART02 |||| PART03 |||| PART04 |||| PART05

PART01 |||| PART02 |||| PART03 |||| PART04 |||| PART05

PART01 |||| PART02 |||| PART03 |||| PART04 |||| PART05

PART01 |||| PART02 |||| PART03 |||| PART04 |||| PART05


Leave A Reply

Your email address will not be published.

%d bloggers like this: