[MINI Super-HQ] Beauty and the Beast (1991) โฉมงามกับเจ้าชายอสูร [Special Edition] [1080p] [พากย์ไทย 5.1 + เสียงอังกฤษ DTS] [บรรยายไทย + อังกฤษ] [เสียงไทย + ซับไทย] [DOSYAUPLOAD]

0

โหลดหนัง Beauty and the Beast (1991) โฉมงามกับเจ้าชายอสูร

Beauty and the Beast | November 22, 1991 (United States) Summary: A prince cursed to spend his days as a hideous monster sets out to regain his humanity by earning a young woman's love.
Countries: United StatesLanguages: English, French

เรื่องย่อ Beauty and the Beast (1991) โฉมงามกับเจ้าชายอสูร

โฉมงามกับเจ้าชายอสูร หนึ่งในภาพยนตร์แอนิเมชั่นเรื่องยิ่งใหญ่และมีค่ามากที่สุดชิ้นหนึ่งจาก วอล์ท ดิสนีย์ กำลังจะกลับมาจับจองหัวใจคุณอีกครั้งตามรอยการผจญภัยของ เบล สาวน้อยผู้มีสติหลักแหลมกลายเป้นจำเลยในปราสาทของเจ้าชายที่กลายร่างเป็นอสูรอย่างลึกลับแต่เพราะสิ่งมีชีวิตอื่นๆในปราสาทคอยหยิบยื่นความช่วยเหลือให้เบล เธอจึงได้เรียนรู้บทเรียนล้ำค่านั่นคือความงามที่แท้จริงมาจากภายในจิตใจ

Complete name : [MINI Super-HQ]_Beauty.and.the.Beast.1991.Special.Edition.1080p.BrRip.DTS.x264.One2loadup.com.mkv
Format : Matroska
Format version : Version 4
File size : 4.96 GiB
Duration : 1 h 31 min
Overall bit rate : 7 736 kb/s
Movie name : [MINI Super-HQ]_Beauty.and.the.Beast.1991.Special.Edition.1080p.BrRip.DTS.x264.One2loadup.com
Encoded date : UTC 2021-02-12 23:07:30
Writing application : mkvmerge v53.0.0 (‘Fool’s Gold’) 64-bit
Writing library : libebml v1.4.1 + libmatroska v1.6.2

Video
ID : 1
Format : AVC
Format/Info : Advanced Video Codec
Format profile : [email protected]
Format settings : CABAC / 4 Ref Frames
Format settings, CABAC : Yes
Format settings, ReFrames : 4 frames
Codec ID : V_MPEG4/ISO/AVC
Duration : 1 h 31 min
Bit rate : 5 544 kb/s
Width : 1 920 pixels
Height : 1 080 pixels
Display aspect ratio : 16:9
Frame rate mode : Constant
Frame rate : 23.976 FPS
Color space : YUV
Chroma subsampling : 4:2:0
Bit depth : 8 bits
Scan type : Progressive
Bits/(Pixel*Frame) : 0.112
Stream size : 3.55 GiB (72%)
Title : [MINI Super-HQ]_Beauty.and.the.Beast.1991.Special.Edition.1080p.BrRip.DTS.x264.One2loadup.com
Writing library : x264 core 124 r2197 69a0443
Encoding settings : cabac=1 / ref=4 / deblock=1:0:0 / analyse=0x3:0x113 / me=umh / subme=10 / psy=1 / psy_rd=1.00:0.10 / mixed_ref=1 / me_range=32 / chroma_me=1 / trellis=2 / 8x8dct=1 / cqm=0 / deadzone=21,11 / fast_pskip=0 / chroma_qp_offset=-3 / threads=12 / sliced_threads=0 / nr=0 / decimate=0 / interlaced=0 / bluray_compat=0 / constrained_intra=0 / bframes=5 / b_pyramid=2 / b_adapt=2 / b_bias=0 / direct=3 / weightb=1 / open_gop=0 / weightp=2 / keyint=240 / keyint_min=23 / scenecut=40 / intra_refresh=0 / rc_lookahead=60 / rc=2pass / mbtree=1 / bitrate=5544 / ratetol=1.0 / qcomp=0.60 / qpmin=0 / qpmax=69 / qpstep=4 / cplxblur=20.0 / qblur=0.5 / ip_ratio=1.40 / aq=1:1.00
Language : English
Default : Yes
Forced : No

Audio #1
ID : 2
Format : DTS
Format/Info : Digital Theater Systems
Codec ID : A_DTS
Duration : 1 h 31 min
Bit rate mode : Constant
Bit rate : 1 510 kb/s
Channel(s) : 6 channels
Channel layout : C L R Ls Rs LFE
Sampling rate : 48.0 kHz
Frame rate : 93.750 FPS (512 SPF)
Bit depth : 24 bits
Compression mode : Lossy
Stream size : 991 MiB (20%)
Title : AC-3 ENG
Language : English
Default : No
Forced : No

Audio #2
ID : 3
Format : AC-3
Format/Info : Audio Coding 3
Commercial name : Dolby Digital
Codec ID : A_AC3
Duration : 1 h 31 min
Bit rate mode : Constant
Bit rate : 640 kb/s
Channel(s) : 6 channels
Channel layout : L R C LFE Ls Rs
Sampling rate : 48.0 kHz
Frame rate : 31.250 FPS (1536 SPF)
Bit depth : 16 bits
Compression mode : Lossy
Stream size : 420 MiB (8%)
Language : Thai
Service kind : Complete Main
Default : Yes
Forced : No

Text #1
ID : 4
Format : VobSub
Muxing mode : zlib
Codec ID : S_VOBSUB
Codec ID/Info : Picture based subtitle format used on DVDs
Duration : 1 h 24 min
Bit rate : 11.4 kb/s
Count of elements : 1368
Stream size : 6.88 MiB (0%)
Language : Thai
Default : Yes
Forced : Yes

Text #2
ID : 5
Format : VobSub
Muxing mode : zlib
Codec ID : S_VOBSUB
Codec ID/Info : Picture based subtitle format used on DVDs
Duration : 1 h 24 min
Bit rate : 11.4 kb/s
Count of elements : 1368
Stream size : 6.88 MiB (0%)
Language : Thai
Default : No
Forced : No

Text #3
ID : 6
Format : PGS
Muxing mode : zlib
Codec ID : S_HDMV/PGS
Codec ID/Info : Picture based subtitle format used on BDs/HD-DVDs
Duration : 1 h 24 min
Bit rate : 53.7 kb/s
Count of elements : 2736
Stream size : 32.5 MiB (1%)
Language : Thai
Default : No
Forced : No

Text #4
ID : 7
Format : UTF-8
Codec ID : S_TEXT/UTF8
Codec ID/Info : UTF-8 Plain Text
Duration : 1 h 24 min
Bit rate : 66 b/s
Count of elements : 1198
Stream size : 41.3 KiB (0%)
Language : English
Default : No
Forced : No

Menu
00:00:00.000 : en:00:00:00.000
00:03:19.616 : en:00:03:19.616
00:08:24.837 : en:00:08:24.837
00:13:50.955 : en:00:13:50.955
00:17:34.887 : en:00:17:34.887
00:20:53.835 : en:00:20:53.835
00:25:34.241 : en:00:25:34.241
00:27:04.748 : en:00:27:04.748
00:34:58.846 : en:00:34:58.846
00:38:28.848 : en:00:38:28.848
00:43:50.794 : en:00:43:50.794
00:49:25.629 : en:00:49:25.629
00:51:59.074 : en:00:51:59.074
00:53:59.736 : en:00:53:59.736
00:57:26.651 : en:00:57:26.651
01:03:07.241 : en:01:03:07.241
01:09:42.553 : en:01:09:42.553
01:11:28.450 : en:01:11:28.450
01:14:22.457 : en:01:14:22.457
01:17:15.380 : en:01:17:15.380
01:21:48.903 : en:01:21:48.903
01:26:00.321 : en:01:26:00.321
01:31:44.624 : en:01:31:44.624

DOWNLOAD


PART01 |||| PART02 |||| PART03 |||| PART04 |||| PART05

PART01 |||| PART02 |||| PART03 |||| PART04 |||| PART05

PART01 |||| PART02 |||| PART03 |||| PART04 |||| PART05

PART01 |||| PART02 |||| PART03 |||| PART04 |||| PART05

PART01 |||| PART02 |||| PART03 |||| PART04 |||| PART05


Leave A Reply

อีเมล์ของคุณจะไม่แสดงให้เห็น Your email address will not be published.

%d bloggers like this: