[MINI Super-HQ] Batman: The Long Halloween, Part Two (2021) แบทแมน: เดอะลอง ฮาโลวีน พาร์ท 2 [1080p] [พากย์ไทย 2.0 + เสียงอังกฤษ DTS] [บรรยายไทย + อังกฤษ] [เสียงไทยมาสเตอร์ + ซับไทย] [USERLOAD]

0

โหลดหนัง Batman: The Long Halloween, Part Two (2021) แบทแมน: เดอะลอง ฮาโลวีน พาร์ท 2

Batman: The Long Halloween, Part Two 87min | Animation, Action, Crime, Horror, Mystery, Sci-Fi | July 27, 2021 (United States) Summary: The killer known as Holiday continues to stalk the Falcone crime family while a new class of costumed criminal rises in Gotham City. Batman suspects that a former ally might be the serial ki... Read all
Countries: United StatesLanguages: English

เรื่องย่อ Batman: The Long Halloween, Part Two (2021) แบทแมน: เดอะลอง ฮาโลวีน พาร์ท 2

นักฆ่าที่รู้จักกันในชื่อฮอลิเดย์ยังคงตระหนักถึงครอบครัวอาชญากรของ ฟอลค่อน ในขณะที่ก่ออาชญากรรมทางอาญาใหม่ในเมือง Gotham แบทแมนสงสัยว่าอดีตพันธมิตรอาจจะเป็นฆาตกรต่อเนื่อง

Complete name : [MINI Super-HQ]_Batman.The.Long.Halloween.Part.Two.2021.1080p.BluRay.DTS.x264.THM.One2loadup.com.mkv
Format : Matroska
Format version : Version 4
File size : 3.50 GiB
Duration : 1 h 27 min
Overall bit rate : 5 751 kb/s
Movie name : [MINI Super-HQ]_Batman.The.Long.Halloween.Part.Two.2021.1080p.BluRay.DTS.x264.THM.One2loadup.com
Encoded date : UTC 2021-08-14 14:56:58
Writing application : mkvmerge v9.8.0 (‘Kuglblids’) 64bit
Writing library : libebml v1.3.4 + libmatroska v1.4.5

Video
ID : 1
Format : AVC
Format/Info : Advanced Video Codec
Format profile : [email protected]
Format settings : CABAC / 4 Ref Frames
Format settings, CABAC : Yes
Format settings, Reference : 4 frames
Codec ID : V_MPEG4/ISO/AVC
Duration : 1 h 27 min
Bit rate : 4 500 kb/s
Width : 1 920 pixels
Height : 1 080 pixels
Display aspect ratio : 16:9
Frame rate mode : Constant
Frame rate : 23.976 (24000/1001) FPS
Color space : YUV
Chroma subsampling : 4:2:0
Bit depth : 8 bits
Scan type : Progressive
Bits/(Pixel*Frame) : 0.091
Stream size : 2.74 GiB (78%)
Title : [MINI Super-HQ]_Batman.The.Long.Halloween.Part.Two.2021.1080p.BluRay.DTS.x264.THM.One2loadup.com
Writing library : x264 core 146 r2538 121396c
Encoding settings : cabac=1 / ref=5 / deblock=1:-3:-3 / analyse=0x3:0x133 / me=tesa / subme=11 / psy=1 / psy_rd=1.00:0.15 / mixed_ref=1 / me_range=48 / chroma_me=1 / trellis=2 / 8x8dct=1 / cqm=0 / deadzone=21,11 / fast_pskip=1 / chroma_qp_offset=-3 / threads=12 / lookahead_threads=1 / sliced_threads=0 / nr=0 / decimate=1 / interlaced=0 / bluray_compat=1 / constrained_intra=0 / bframes=3 / b_pyramid=1 / b_adapt=2 / b_bias=0 / direct=3 / weightb=1 / open_gop=0 / weightp=1 / keyint=250 / keyint_min=1 / scenecut=40 / intra_refresh=0 / rc_lookahead=60 / rc=2pass / mbtree=1 / bitrate=4500 / ratetol=1.0 / qcomp=0.60 / qpmin=0 / qpmax=69 / qpstep=4 / cplxblur=20.0 / qblur=0.5 / ip_ratio=1.40 / aq=1:1.30
Language : English
Default : Yes
Forced : No

Audio #1
ID : 2
Format : AC-3
Format/Info : Audio Coding 3
Commercial name : Dolby Digital
Codec ID : A_AC3
Duration : 1 h 27 min
Bit rate mode : Constant
Bit rate : 384 kb/s
Channel(s) : 2 channels
Channel layout : L R
Sampling rate : 48.0 kHz
Frame rate : 31.250 FPS (1536 SPF)
Compression mode : Lossy
Stream size : 239 MiB (7%)
Title : Thai Master
Language : Thai
Service kind : Complete Main
Default : Yes
Forced : No

Audio #2
ID : 3
Format : DTS
Format/Info : Digital Theater Systems
Codec ID : A_DTS
Duration : 1 h 27 min
Bit rate mode : Constant
Bit rate : 755 kb/s
Channel(s) : 6 channels
Channel layout : C L R Ls Rs LFE
Sampling rate : 48.0 kHz
Frame rate : 93.750 FPS (512 SPF)
Bit depth : 24 bits
Compression mode : Lossy
Stream size : 470 MiB (13%)
Title : English DTS-5.1
Language : English
Default : No
Forced : No

Text #1
ID : 4
Format : PGS
Codec ID : S_HDMV/PGS
Codec ID/Info : Picture based subtitle format used on BDs/HD-DVDs
Duration : 1 h 27 min
Bit rate : 29.7 kb/s
Count of elements : 1458
Stream size : 18.5 MiB (1%)
Title : Thai 1080p PGS
Language : Thai
Default : Yes
Forced : No

Text #2
ID : 5
Format : VobSub
Codec ID : S_VOBSUB
Codec ID/Info : Picture based subtitle format used on DVDs
Duration : 1 h 27 min
Bit rate : 7 097 b/s
Count of elements : 729
Stream size : 4.42 MiB (0%)
Title : Thai 1080p
Language : Thai
Default : No
Forced : No

Text #3
ID : 6
Format : PGS
Codec ID : S_HDMV/PGS
Codec ID/Info : Picture based subtitle format used on BDs/HD-DVDs
Duration : 1 h 27 min
Bit rate : 29.3 kb/s
Count of elements : 1458
Stream size : 18.3 MiB (1%)
Title : Thai 1080p Out PGS
Language : Thai
Default : No
Forced : No

Text #4
ID : 7
Format : VobSub
Codec ID : S_VOBSUB
Codec ID/Info : Picture based subtitle format used on DVDs
Duration : 1 h 27 min
Bit rate : 7 003 b/s
Count of elements : 729
Stream size : 4.36 MiB (0%)
Title : Thai 1080p Out
Language : Thai
Default : No
Forced : No

Text #5
ID : 8
Format : VobSub
Codec ID : S_VOBSUB
Codec ID/Info : Picture based subtitle format used on DVDs
Duration : 1 h 27 min
Bit rate : 9 725 b/s
Count of elements : 729
Stream size : 6.06 MiB (0%)
Title : Thai 1080p Big [Yellow]
Language : Thai
Default : No
Forced : No

Text #6
ID : 9
Format : PGS
Codec ID : S_HDMV/PGS
Codec ID/Info : Picture based subtitle format used on BDs/HD-DVDs
Duration : 1 h 24 min
Bit rate : 28.0 kb/s
Count of elements : 1964
Stream size : 17.0 MiB (0%)
Title : English PGS
Language : English
Default : No
Forced : No

Text #7
ID : 10
Format : UTF-8
Codec ID : S_TEXT/UTF8
Codec ID/Info : UTF-8 Plain Text
Duration : 1 h 24 min
Bit rate : 38 b/s
Count of elements : 820
Stream size : 23.8 KiB (0%)
Title : English SRT
Language : English
Default : No
Forced : No

Menu
00:00:00.000 : en:00:00:00.000
00:09:54.385 : en:00:09:54.385
00:18:28.316 : en:00:18:28.316
00:28:28.165 : en:00:28:28.165
00:38:25.845 : en:00:38:25.845
00:46:50.474 : en:00:46:50.474
00:56:12.244 : en:00:56:12.244
01:05:55.660 : en:01:05:55.660
01:15:43.497 : en:01:15:43.497
01:24:17.719 : en:01:24:17.719

DOWNLOAD


PART01 |||| PART02 |||| PART03 |||| PART04

PART01 |||| PART02 |||| PART03 |||| PART04

PART01 |||| PART02 |||| PART03 |||| PART04

PART01 |||| PART02 |||| PART03 |||| PART04

PART01 |||| PART02 |||| PART03 |||| PART04


Leave A Reply

อีเมล์ของคุณจะไม่แสดงให้เห็น Your email address will not be published.

%d bloggers like this: