[MINI Super-HQ] Bangkok Traffic Love Story (2009) รถไฟฟ้ามาหานะเธอ [1080p] [พากย์ไทย 5.1] [บรรยายไทย + อังกฤษ] [เสียงไทย + ซับไทย] [PANDAFILE]

0

Bangkok Traffic Love Story (2009) รถไฟฟ้ามาหานะเธอ

โหลดหนัง Bangkok Traffic Love Story (2009) รถไฟฟ้ามาหานะเธอ

Rot fai faa... Maha na ter (2009) 2h 6min | Comedy, Romance | 15 October 2009 (Thailand) Summary: An urban love story set in the center of Bangkok where thirty-year-old Mei Li struggling to find true love. When Mei Li accidentally meets a handsome BTS engineer whom she considers the ... See full summary »
Countries: ThailandLanguages: Thai

เรื่องย่อ Bangkok Traffic Love Story (2009) รถไฟฟ้ามาหานะเธอ

หนัง Romance | Comedy เหมยลี่ (คริส หอวัง) สาววัยล่วงเลยเข้าเลข30 เป็นผู้หญิงที่ชอบเมาในงานแต่งงานของเพื่อนเธอ ช่างตอกย่ำการเป็นสาวโสดไร้คู่ของเธอซะจริงๆ หลังจากไปส่งเพื่อนสาวกลับหอพัก เหมยลี่ได้ขับรถไปชนกับแผงร้านขายโจ๊กในตลาด ทำให้พ่อของเธอดัดเส้นด้วยการขายรถของเธอทิ้ง เหมยลี่จึงต้องขึ้นมอเตอร์ไซค์ ต่อรถตู้ โบกแท็กซี่ โหนรถเมล์ โดดลงเรือ ฯลฯ เพื่อไปทำงาน แต่การเดินด้วยรถไฟฟ้าจึงทำให้เธอได้พบกับ ลุง (เคน – ธีรเดช วงศ์พัวพันธ์) วิศวกร Maintenance แห่งรถไฟฟ้า BTS เหมยลี่รู้สึกราวกับว่า ลุง คือ ขุมทรัพย์ที่เธอบังเอิญไปพบลายแทงเข้า หากเธอไม่ลงมือทำอะไร ไม่ทำในสิ่งที่ใจต้องการ เธออาจกลายเป็นหญิงโสดคนสุดท้ายในกรุงเทพมหานคร เหมยลี่ตัดสินใจทำในสิ่งที่ผู้หญิงทุกคนเคยคิด แต่ไม่กล้าลงมือ นั่นคือ การจีบผู้ชายก่อน!! ความอลหม่านจึงเริ่มขึ้น
Complete name :  [MINI Super-HQ]_Bangkok.Traffic.Love.Story.2009.1080p.NF.WEB-DL.AC3.x264.One2loadup.com.mkv

Format : Matroska
Format version : Version 4
File size : 4.78 GiB
Duration : 2 h 5 min
Overall bit rate mode : Variable
Overall bit rate : 5 429 kb/s
Movie name : [MINI Super-HQ]_Bangkok.Traffic.Love.Story.2009.1080p.NF.WEB-DL.AC3.x264.One2loadup.com
Encoded date : UTC 2018-09-28 13:24:54
Writing application : mkvmerge v27.0.0 (‘Metropolis’) 64-bit
Writing library : libebml v1.3.6 + libmatroska v1.4.9

Video
ID : 1
Format : AVC
Format/Info : Advanced Video Codec
Format profile : [email protected]
Format settings : CABAC / 3 Ref Frames
Format settings, CABAC : Yes
Format settings, ReFrames : 3 frames
Codec ID : V_MPEG4/ISO/AVC
Duration : 2 h 5 min
Bit rate mode : Variable
Bit rate : 4 870 kb/s
Maximum bit rate : 7 305 kb/s
Width : 1 920 pixels
Height : 1 080 pixels
Display aspect ratio : 16:9
Frame rate mode : Constant
Frame rate : 25.000 FPS
Color space : YUV
Chroma subsampling : 4:2:0
Bit depth : 8 bits
Scan type : Progressive
Bits/(Pixel*Frame) : 0.094
Stream size : 4.18 GiB (87%)
Title : [MINI Super-HQ]_Bangkok.Traffic.Love.Story.2009.1080p.NF.WEB-DL.AC3.x264.One2loadup.com
Writing library : x264 core 148 r2715 7e75228
Encoding settings : cabac=1 / ref=3 / deblock=1:0:0 / analyse=0x1:0x111 / me=umh / subme=10 / psy=1 / psy_rd=1.00:0.00 / mixed_ref=1 / me_range=24 / chroma_me=1 / trellis=2 / 8x8dct=0 / cqm=0 / deadzone=21,11 / fast_pskip=1 / chroma_qp_offset=-2 / threads=8 / lookahead_threads=1 / sliced_threads=0 / nr=0 / decimate=1 / interlaced=0 / bluray_compat=0 / stitchable=1 / constrained_intra=0 / bframes=2 / b_pyramid=0 / b_adapt=2 / b_bias=0 / direct=3 / weightb=1 / open_gop=0 / weightp=2 / keyint=50 / keyint_min=26 / scenecut=0 / intra_refresh=0 / rc_lookahead=50 / rc=2pass / mbtree=1 / bitrate=4870 / ratetol=1.0 / qcomp=0.50 / qpmin=6 / qpmax=51 / qpstep=4 / cplxblur=20.0 / qblur=0.5 / vbv_maxrate=7305 / vbv_bufsize=9740 / nal_hrd=vbr / filler=0 / ip_ratio=1.40 / aq=1:1.00
Default : Yes
Forced : No

Audio
ID : 2
Format : E-AC-3
Format/Info : Enhanced AC-3
Commercial name : Dolby Digital Plus
Codec ID : A_EAC3
Duration : 2 h 5 min
Bit rate mode : Constant
Bit rate : 640 kb/s
Channel(s) : 6 channels
Channel layout : L R C LFE Ls Rs
Sampling rate : 48.0 kHz
Frame rate : 31.250 FPS (1536 SPF)
Compression mode : Lossy
Stream size : 577 MiB (12%)
Title : Thai
Language : Thai
Service kind : Complete Main
Default : Yes
Forced : No

Text #1
ID : 3
Format : UTF-8
Codec ID : S_TEXT/UTF8
Codec ID/Info : UTF-8 Plain Text
Duration : 1 h 59 min
Bit rate : 40 b/s
Count of elements : 1136
Stream size : 35.7 KiB (0%)
Language : English
Default : No
Forced : No

Text #2
ID : 4
Format : VobSub
Muxing mode : zlib
Codec ID : S_VOBSUB
Codec ID/Info : Picture based subtitle format used on DVDs
Duration : 1 h 59 min
Bit rate : 5 275 b/s
Count of elements : 1136
Stream size : 4.52 MiB (0%)
Language : English
Default : No
Forced : No

Text #3
ID : 5
Format : PGS
Muxing mode : zlib
Codec ID : S_HDMV/PGS
Codec ID/Info : Picture based subtitle format used on BDs/HD-DVDs
Duration : 1 h 59 min
Bit rate : 26.8 kb/s
Count of elements : 2272
Stream size : 22.9 MiB (0%)
Language : English
Default : No
Forced : No

Text #4
ID : 6
Format : UTF-8
Codec ID : S_TEXT/UTF8
Codec ID/Info : UTF-8 Plain Text
Duration : 2 h 1 min
Bit rate : 129 b/s
Count of elements : 1719
Stream size : 115 KiB (0%)
Title : SDH
Language : Thai
Default : Yes
Forced : Yes

Text #5
ID : 7
Format : VobSub
Muxing mode : zlib
Codec ID : S_VOBSUB
Codec ID/Info : Picture based subtitle format used on DVDs
Duration : 2 h 1 min
Bit rate : 7 311 b/s
Count of elements : 1719
Stream size : 6.33 MiB (0%)
Title : SDH
Language : Thai
Default : No
Forced : No

Text #6
ID : 8
Format : PGS
Muxing mode : zlib
Codec ID : S_HDMV/PGS
Codec ID/Info : Picture based subtitle format used on BDs/HD-DVDs
Duration : 2 h 1 min
Bit rate : 44.0 kb/s
Count of elements : 3438
Stream size : 38.1 MiB (1%)
Title : SDH
Language : Thai
Default : No
Forced : No

DOWNLOAD


PART01 |||| PART02 |||| PART03 |||| PART04 |||| PART05

PART01 |||| PART02 |||| PART03 |||| PART04 |||| PART05

PART01 |||| PART02 |||| PART03 |||| PART04 |||| PART05

PART01 |||| PART02 |||| PART03 |||| PART04 |||| PART05


Leave A Reply

Your email address will not be published.

%d bloggers like this: