[MINI Super-HQ] Avengers: Endgame (2019) อเวนเจอร์ส: เผด็จศึก [1080p] [พากย์ไทย 5.1 + เสียงอังกฤษ DTS] [บรรยายไทย + อังกฤษ] [เสียงไทย + ซับไทย] [OPENLOAD]

6

Avengers: Endgame (2019)

โหลดหนัง Avengers: Endgame (2019) อเวนเจอร์ส: เผด็จศึก

Avengers: Endgame (2019) 3h 1min | Action, Adventure, Sci-Fi | 26 April 2019 (Canada) Summary: After the devastating events of Avengers: Infinity War (2018), the universe is in ruins. With the help of remaining allies, the Avengers assemble once more in order to reverse Thanos' actions and restore balance to the universe.
Countries: USALanguages: English, Japanese, Xhosa

เรื่องย่อ Avengers: Endgame (2019) อเวนเจอร์ส: เผด็จศึก

เรื่องราวการปิดจักรวาลมาร์เวลเฟส 3 เหตุการณ์ภายหลังจากที่ธานอสดีดนิ้วล้างครึ่งจักรวาลเหล่าฮีโร่ที่เหลือรอดจะหาทางกอบกู้จักรวาลนี้คืนมาได้อย่างไร โดยในภาคนี้จะมีตัวเด็ดอย่างกัปตันมาร์เวลมาร่วมเสริมทัพด้วย!!!

Complete name :  [MINI Super-HQ]_Avengers.Endgame.2019.1080p.BrRip.DTS.x264.One2loadup.com.mkv
Format : Matroska
Format version : Version 4
File size : 5.66 GiB
Duration : 3 h 1 min
Overall bit rate : 4 468 kb/s
Movie name : [MINI Super-HQ]_Avengers.Endgame.2019.1080p.BrRip.DTS.x264.One2loadup.com
Encoded date : UTC 2010-02-22 21:41:31
Writing application : mkvmerge v5.9.0 (‘On The Loose’) built on Dec 9 2012 15:37:01
Writing library : libebml v1.3.0 + libmatroska v1.4.0

Video
ID : 1
Format : AVC
Format/Info : Advanced Video Codec
Format profile : [email protected]
Format settings : CABAC / 4 Ref Frames
Format settings, CABAC : Yes
Format settings, ReFrames : 4 frames
Codec ID : V_MPEG4/ISO/AVC
Duration : 3 h 1 min
Bit rate : 3 172 kb/s
Width : 1 920 pixels
Height : 804 pixels
Display aspect ratio : 2.40:1
Frame rate mode : Constant
Frame rate : 23.976 (24000/1001) FPS
Color space : YUV
Chroma subsampling : 4:2:0
Bit depth : 8 bits
Scan type : Progressive
Bits/(Pixel*Frame) : 0.086
Stream size : 4.10 GiB (73%)
Title : [MINI Super-HQ]_Avengers.Endgame.2019.1080p.BrRip.DTS.x264.One2loadup.com
Writing library : x264 core 146 r2538 121396c
Encoding settings : cabac=1 / ref=5 / deblock=1:-3:-3 / analyse=0x3:0x133 / me=tesa / subme=11 / psy=1 / psy_rd=1.00:0.15 / mixed_ref=1 / me_range=48 / chroma_me=1 / trellis=2 / 8x8dct=1 / cqm=0 / deadzone=21,11 / fast_pskip=1 / chroma_qp_offset=-3 / threads=54 / lookahead_threads=4 / sliced_threads=0 / nr=0 / decimate=1 / interlaced=0 / bluray_compat=1 / constrained_intra=0 / bframes=3 / b_pyramid=1 / b_adapt=2 / b_bias=0 / direct=3 / weightb=1 / open_gop=0 / weightp=1 / keyint=250 / keyint_min=1 / scenecut=40 / intra_refresh=0 / rc_lookahead=60 / rc=2pass / mbtree=1 / bitrate=3172 / ratetol=1.0 / qcomp=0.60 / qpmin=0 / qpmax=69 / qpstep=4 / cplxblur=20.0 / qblur=0.5 / ip_ratio=1.40 / aq=1:1.30
Language : English
Default : Yes
Forced : No

Audio #1
ID : 2
Format : AC-3
Format/Info : Audio Coding 3
Commercial name : Dolby Digital
Codec ID : A_AC3
Duration : 3 h 1 min
Bit rate mode : Constant
Bit rate : 384 kb/s
Channel(s) : 6 channels
Channel layout : L R C LFE Ls Rs
Sampling rate : 48.0 kHz
Frame rate : 31.250 FPS (1536 SPF)
Bit depth : 16 bits
Compression mode : Lossy
Delay relative to video : 700 ms
Stream size : 498 MiB (9%)
Title : Thai DVD Master
Language : Thai
Service kind : Complete Main
Default : Yes
Forced : Yes

Audio #2
ID : 3
Format : DTS
Format/Info : Digital Theater Systems
Codec ID : A_DTS
Duration : 3 h 1 min
Bit rate mode : Constant
Bit rate : 755 kb/s
Channel(s) : 6 channels
Channel layout : C L R Ls Rs LFE
Sampling rate : 48.0 kHz
Frame rate : 93.750 FPS (512 SPF)
Bit depth : 24 bits
Compression mode : Lossy
Stream size : 978 MiB (17%)
Title : English DTS
Language : English
Default : No
Forced : No

Text #1
ID : 4
Format : VobSub
Codec ID : S_VOBSUB
Codec ID/Info : Picture based subtitle format used on DVDs
Title : Thai For Non-English Part
Language : Thai
Default : Yes
Forced : Yes

Text #2
ID : 5
Format : VobSub
Codec ID : S_VOBSUB
Codec ID/Info : Picture based subtitle format used on DVDs
Title : Thai 480p
Language : Thai
Default : No
Forced : No

Text #3
ID : 6
Format : VobSub
Codec ID : S_VOBSUB
Codec ID/Info : Picture based subtitle format used on DVDs
Title : Thai 720p
Language : Thai
Default : No
Forced : No

Text #4
ID : 7
Format : VobSub
Codec ID : S_VOBSUB
Codec ID/Info : Picture based subtitle format used on DVDs
Title : Thai 1080p Master
Language : Thai
Default : No
Forced : No

Text #5
ID : 8
Format : VobSub
Codec ID : S_VOBSUB
Codec ID/Info : Picture based subtitle format used on DVDs
Title : Thai 1080p Yellow
Language : Thai
Default : No
Forced : No

Text #6
ID : 9
Format : VobSub
Codec ID : S_VOBSUB
Codec ID/Info : Picture based subtitle format used on DVDs
Title : Thai 1080p Out
Language : Thai
Default : No
Forced : No

Text #7
ID : 10
Format : VobSub
Codec ID : S_VOBSUB
Codec ID/Info : Picture based subtitle format used on DVDs
Title : Thai 1080p BIG
Language : Thai
Default : No
Forced : No

Text #8
ID : 11
Format : VobSub
Codec ID : S_VOBSUB
Codec ID/Info : Picture based subtitle format used on DVDs
Title : Thai 1080p Out [BIG]
Language : Thai
Default : No
Forced : No

Text #9
ID : 12
Format : PGS
Codec ID : S_HDMV/PGS
Codec ID/Info : Picture based subtitle format used on BDs/HD-DVDs
Title : Thai PGS
Language : Thai
Default : No
Forced : No

Text #10
ID : 13
Format : PGS
Codec ID : S_HDMV/PGS
Codec ID/Info : Picture based subtitle format used on BDs/HD-DVDs
Title : Thai PGS Yellow
Language : Thai
Default : No
Forced : No

Text #11
ID : 14
Format : PGS
Codec ID : S_HDMV/PGS
Codec ID/Info : Picture based subtitle format used on BDs/HD-DVDs
Title : Thai PGS Out
Language : Thai
Default : No
Forced : No

Text #12
ID : 15
Format : PGS
Codec ID : S_HDMV/PGS
Codec ID/Info : Picture based subtitle format used on BDs/HD-DVDs
Title : English
Language : English
Default : No
Forced : No

Menu
00:00:00.000 : en:1
00:08:05.235 : en:2
00:20:01.034 : en:3
00:26:14.615 : en:4
00:36:56.506 : en:5
00:43:19.931 : en:6
00:48:43.503 : en:7
00:57:36.077 : en:8
01:07:11.944 : en:9
01:16:01.847 : en:10
01:26:24.760 : en:11
01:32:19.448 : en:12
01:38:55.134 : en:13
01:48:11.689 : en:14
01:57:26.243 : en:15
02:04:59.570 : en:16
02:15:05.759 : en:17
02:25:49.778 : en:18
02:34:37.263 : en:19
02:43:03.226 : en:20
02:49:04.669 : en:21

DOWNLOAD


PART01 |||| PART02 |||| PART03 |||| PART04 |||| PART05 |||| PART06

PART01 |||| PART02 |||| PART03 |||| PART04 |||| PART05 |||| PART06

PART01 |||| PART02 |||| PART03 |||| PART04 |||| PART05 |||| PART06

PART01 |||| PART02 |||| PART03 |||| PART04 |||| PART05 |||| PART06


6 Comments
  1. Jomjoon
    Jomjoon says

    ไม่มี Link ดาวโหลดของ VIP หรอครับ

    1. Admin
      Admin says

      ก็มีปกติ

  2. Badkung2016
    Badkung2016 says

    ขึ้นมาข้อความนี้
    ขออภัย คุณไม่สามารถดูหรือดาวน์โหลดไฟล์นี้ได้ในขณะนี้

    มีผู้ใช้ที่ได้ดูหรือดาวน์โหลดไฟล์นี้จำนวนมากเกินไป โปรดลองเข้าถึงไฟล์อีกครั้งในภายหลัง ถ้าไฟล์ที่คุณพยายามเข้าถึงมีขนาดใหญ่มาก หรือมีการแชร์กับคนจำนวนมาก อาจใช้เวลาถึง 24 ชั่วโมงจึงจะสามารถดูหรือดาวน์โหลดไฟล์ ถ้าคุณยังไม่สามารถเข้าถึงไฟล์หลังจากเวลาผ่านไป 24 ชั่วโมง โปรดติดต่อผู้ดูแลระบบของคุณ

    1. Admin
      Admin says

      แก้ไขเรียบร้อยฮ๊ะ

  3. Agenebula .
    Agenebula . says

    เติม VIP ไปแล้ว โหลดแบบ VIP ไม่ได้เลย server 0-4 ช่วยทีครับ

    1. Admin
      Admin says

      โหลดได้ปกตินะฮ๊ะ ไม่ทราบติดปัญหาอะไรเอ่ย

Leave A Reply

Your email address will not be published.

%d bloggers like this: