[MINI Super-HQ] App War (2018) แอปชนแอป [1080p] [พากย์ไทย DTS + 5.1] [ไม่มีบรรยาย] [หนังไทย] [เสียงไทย] [PANDAFILE]

0

โหลดหนัง App War (2018) แอปชนแอป

App War (2018) 2h 10min | Comedy, Drama, Romance | 1 August 2018 (Thailand) Summary: Bomb and June, two app startup founders, are leading each of their teams to get their mobile applications off the ground and running. They meet each other at their favorite hideaway dinner ... See full summary »
Countries: ThailandLanguages: Thai

เรื่องย่อ App War (2018) แอปชนแอป

บอมบ์ กับ จูน สองหัวหน้าทีมทำแอปหน้าใหม่ที่ไม่เคยประสบความสำเร็จในการประกวด Startup เวทีไหนมาก่อนเลย วันหนึ่งพวกเขาได้เจอกันโดยบังเอิญ เมื่อได้ทำความรู้จักกันมากขึ้นก็พบว่าต่างคนต่างก็ชอบอะไรหลายๆ อย่างเหมือนกัน จนคุยกันถูกคอ และเกิดเป็นความรู้สึกดีๆ ขึ้น ค่ำคืนนั้นทำให้บอมบ์ได้แรงบันดาลใจและปิ๊งไอเดียแอป แอปหนึ่งขึ้นมา แต่หลังจากเปิดตัวแอปได้ไม่นานก็มีอีกแอปหนึ่งเปิดตัวในเวลาไล่เลี่ยกันทั้งไอเดียและคอนเซปต์คล้ายของเขาจนแทบจะเรียกได้ว่า “ก๊อบ” กันออกมาทีเดียว และเมื่อสืบถึงตัวเจ้าของแอป ก็พบว่าแอปนั้นเป็นของ จูน นั่นเอง ทั้งบอมบ์และจูนได้เจอกันอีกครั้ง แต่เป็นในฐานะคู่แข่ง เมื่อต่างคนต่างก็เชื่อมั่นว่าตัวเองเป็นเจ้าของไอเดียแอปนี้ และไม่มีใครยอมรับว่าตัวเองเป็นฝ่าย “ก๊อบ” แถมเวลาของการแข่ง Startup ครั้งใหม่ก็กำลังจะมาถึง และครั้งนี้มันคือการเดิมพันด้วยอนาคตของทั้งสองทีม โดยมีการระดมทุนระดับร้อยล้านเป็นเดิมพัน ทั้งสองทีมต่างต้องเอาตัวรอด พวกเขาเริ่มคิดวิธีตุกติก ยิ่งเวลาดำเนินไป แผนการล้วงลับแอปคู่แข่งของทั้งสองต่างก็เริ่มเลยเถิด และอยู่นอกเหนือการควบคุมมากขึ้นทุกขณะ “สงครามแอป” ครั้งนี้ เป็นการวัดใจของทั้งสองทีมว่าแท้จริงแล้วทั้งคู่ต้องการเอาชนะกันเพราะอีโก้ และเงิน หรือเพราะจริงๆ แล้ว สิ่งที่ขับเคี่ยวกันอยู่นั้น คือเสียงเรียกร้องของหัวใจตนเองกันแน่!!!

Complete name : [MINI Super-HQ]_App.War.2018.1080p.BrRip.DTS.x264.One2loadup.com.mkv
Format : Matroska
Format version : Version 4
File size : 3.85 GiB
Duration : 2 h 10 min
Overall bit rate : 4 221 kb/s
Movie name : [MINI Super-HQ]_App.War.2018.1080p.BrRip.DTS.x264.One2loadup.com
Encoded date : UTC 2010-02-22 21:41:31
Writing application : mkvmerge v5.9.0 (‘On The Loose’) built on Dec 9 2012 15:37:01
Writing library : libebml v1.3.0 + libmatroska v1.4.0

Video
ID : 1
Format : AVC
Format/Info : Advanced Video Codec
Format profile : [email protected]
Format settings : CABAC / 4 Ref Frames
Format settings, CABAC : Yes
Format settings, ReFrames : 4 frames
Codec ID : V_MPEG4/ISO/AVC
Duration : 2 h 10 min
Bit rate : 3 003 kb/s
Width : 1 920 pixels
Height : 804 pixels
Display aspect ratio : 2.40:1
Frame rate mode : Constant
Frame rate : 24.000 FPS
Color space : YUV
Chroma subsampling : 4:2:0
Bit depth : 8 bits
Scan type : Progressive
Bits/(Pixel*Frame) : 0.081
Stream size : 2.66 GiB (69%)
Title : [MINI Super-HQ]_App.War.2018.1080p.BrRip.DTS.x264.One2loadup.com
Writing library : x264 core 130 r2273 b3065e6
Encoding settings : cabac=1 / ref=3 / deblock=1:0:0 / analyse=0x3:0x113 / me=umh / subme=11 / psy=1 / psy_rd=1.00:0.00 / mixed_ref=1 / me_range=48 / chroma_me=1 / trellis=2 / 8x8dct=1 / cqm=0 / deadzone=21,11 / fast_pskip=1 / chroma_qp_offset=-2 / threads=24 / lookahead_threads=2 / sliced_threads=0 / nr=0 / decimate=1 / interlaced=0 / bluray_compat=0 / constrained_intra=0 / bframes=3 / b_pyramid=2 / b_adapt=1 / b_bias=0 / direct=1 / weightb=1 / open_gop=0 / weightp=2 / keyint=240 / keyint_min=24 / scenecut=40 / intra_refresh=0 / rc_lookahead=40 / rc=2pass / mbtree=1 / bitrate=3003 / ratetol=1.0 / qcomp=0.60 / qpmin=0 / qpmax=69 / qpstep=4 / cplxblur=20.0 / qblur=0.5 / ip_ratio=1.40 / aq=1:1.00
Language : Thai
Default : Yes
Forced : No
Color range : Limited
Color primaries : BT.709
Transfer characteristics : BT.709
Matrix coefficients : BT.709

Audio #1
ID : 2
Format : DTS
Format/Info : Digital Theater Systems
Codec ID : A_DTS
Duration : 2 h 10 min
Bit rate mode : Constant
Bit rate : 768 kb/s
Channel(s) : 6 channels
Channel layout : C L R Ls Rs LFE
Sampling rate : 48.0 kHz
Frame rate : 93.750 FPS (512 SPF)
Bit depth : 24 bits
Compression mode : Lossy
Delay relative to video : 3 ms
Stream size : 717 MiB (18%)
Title : Thai DTS Bluray Master
Language : Thai
Default : Yes
Forced : Yes

Audio #2
ID : 3
Format : AC-3
Format/Info : Audio Coding 3
Commercial name : Dolby Digital
Muxing mode : Header stripping
Codec ID : A_AC3
Duration : 2 h 10 min
Bit rate mode : Constant
Bit rate : 448 kb/s
Channel(s) : 6 channels
Channel layout : L R C LFE Ls Rs
Sampling rate : 48.0 kHz
Frame rate : 31.250 FPS (1536 SPF)
Bit depth : 16 bits
Compression mode : Lossy
Delay relative to video : 24 ms
Stream size : 418 MiB (11%)
Title : Thai AC3 5.1
Language : Thai
Service kind : Complete Main
Default : No
Forced : No

Menu
00:00:00.000 : en:Chapter 1
00:10:47.958 : en:Chapter 2
00:20:43.583 : en:Chapter 3
00:34:17.708 : en:Chapter 4
00:45:40.750 : en:Chapter 5
00:57:04.875 : en:Chapter 6
01:07:06.875 : en:Chapter 7
01:15:48.250 : en:Chapter 8
01:26:20.250 : en:Chapter 9
01:38:03.875 : en:Chapter 10
01:46:20.541 : en:Chapter 11
02:01:13.333 : en:Chapter 12

DOWNLOAD


PART01 |||| PART02 |||| PART03 |||| PART04

PART01 |||| PART02 |||| PART03 |||| PART04

PART01 |||| PART02 |||| PART03 |||| PART04

PART01 |||| PART02 |||| PART03 |||| PART04

PART01 |||| PART02 |||| PART03 |||| PART04


Leave A Reply

Your email address will not be published.

%d bloggers like this: