[MINI Super-HQ] Anthropoid (2016) แอนโธรพอยด์ ปฏิบัติการพิฆาตนาซี [1080p] [พากย์ไทย 2.0 + เสียงอังกฤษ DTS] [บรรยายไทย + อังกฤษ] [เสียงไทยมาสเตอร์ + ซับไทย] [USERLOAD]

0

โหลดหนัง Anthropoid (2016) แอนโธรพอยด์ ปฏิบัติการพิฆาตนาซี

Anthropoid (2016) 120min | Action, Biography, Drama, History, Romance, Thriller, War | September 9, 2016 (United Kingdom) Summary: Based on the extraordinary true story of Operation Anthropoid, the WWII mission to assassinate SS General Reinhard Heydrich, the main architect behind the Final Solution and the Reich's thir... Read all
Countries: Czech Republic, United Kingdom, United States, FranceLanguages: English, Czech, German

เรื่องย่อ Anthropoid (2016) แอนโธรพอยด์ ปฏิบัติการพิฆาตนาซี

สร้างจากเหตุการณ์จริงในสมัยสงครามโลกครั้งที่ 2 “Operation Anthropoid” เป็นชื่อปฏิบัติการลอบสังหารนายพล Reinhard Heydrich โดยเจมี่กับคิลเลียนรับบทนำเป็น 2 นายทหารชาวเชกพลัดถิ่นที่ได้รับภารกิจให้กลับเข้าไปบ้านเกิดของพวกเค้าเพื่อปลิดชีวิตนายพลนาซีจอมโหด!!!

Complete name : [MINI Super-HQ]_Anthropoid.2016.1080p.BrRip.DTS.x264.THM.One2loadup.com.mkv
Format : Matroska
Format version : Version 4
File size : 4.08 GiB
Duration : 2 h 0 min
Overall bit rate : 4 832 kb/s
Movie name : [MINI Super-HQ]_Anthropoid.2016.1080p.BrRip.DTS.x264.THM.One2loadup.com
Encoded date : UTC 2021-08-12 16:31:59
Writing application : mkvmerge v9.8.0 (‘Kuglblids’) 64bit
Writing library : libebml v1.3.4 + libmatroska v1.4.5

Video
ID : 1
Format : AVC
Format/Info : Advanced Video Codec
Format profile : [email protected]
Format settings : CABAC / 5 Ref Frames
Format settings, CABAC : Yes
Format settings, Reference : 5 frames
Codec ID : V_MPEG4/ISO/AVC
Duration : 2 h 0 min
Bit rate : 3 605 kb/s
Width : 1 920 pixels
Height : 804 pixels
Display aspect ratio : 2.40:1
Frame rate mode : Constant
Frame rate : 23.976 (24000/1001) FPS
Color space : YUV
Chroma subsampling : 4:2:0
Bit depth : 8 bits
Scan type : Progressive
Bits/(Pixel*Frame) : 0.097
Stream size : 3.04 GiB (75%)
Title : [MINI Super-HQ]_Anthropoid.2016.1080p.BrRip.DTS.x264.THM.One2loadup.com
Writing library : x264 core 142 r2431+42 c69a006 tMod [[email protected]:2:0 X86_64]
Encoding settings : cabac=1 / ref=5 / deblock=1:-3:-3 / analyse=0x3:0x133 / me=umh / subme=10 / psy=1 / fade_compensate=0.00 / psy_rd=1.00:0.00 / mixed_ref=1 / me_range=32 / chroma_me=1 / trellis=2 / 8x8dct=1 / cqm=0 / deadzone=21,11 / fast_pskip=0 / chroma_qp_offset=-2 / threads=12 / lookahead_threads=1 / sliced_threads=0 / nr=0 / decimate=0 / interlaced=0 / bluray_compat=0 / constrained_intra=0 / fgo=0 / bframes=6 / b_pyramid=2 / b_adapt=2 / b_bias=0 / direct=3 / weightb=1 / open_gop=0 / weightp=2 / keyint=230 / keyint_min=22 / scenecut=40 / intra_refresh=0 / rc_lookahead=60 / rc=2pass / mbtree=1 / bitrate=3605 / ratetol=1.0 / qcomp=0.60 / qpmin=0:0:0 / qpmax=69:69:69 / qpstep=4 / cplxblur=20.0 / qblur=0.5 / vbv_maxrate=50000 / vbv_bufsize=50000 / nal_hrd=none / filler=0 / ip_ratio=1.40 / aq=1:1.00 / aq-sensitivity=10.00 / aq-factor=1.00:1.00:1.00 / aq2=0 / aq3=0
Language : English
Default : Yes
Forced : No

Audio #1
ID : 2
Format : AC-3
Format/Info : Audio Coding 3
Commercial name : Dolby Digital
Codec ID : A_AC3
Duration : 2 h 0 min
Bit rate mode : Constant
Bit rate : 384 kb/s
Channel(s) : 2 channels
Channel layout : L R
Sampling rate : 48.0 kHz
Frame rate : 31.250 FPS (1536 SPF)
Compression mode : Lossy
Stream size : 332 MiB (8%)
Title : Thai Master
Language : Thai
Service kind : Complete Main
Default : Yes
Forced : No

Audio #2
ID : 3
Format : DTS
Format/Info : Digital Theater Systems
Codec ID : A_DTS
Duration : 2 h 0 min
Bit rate mode : Constant
Bit rate : 755 kb/s
Channel(s) : 6 channels
Channel layout : C L R Ls Rs LFE
Sampling rate : 48.0 kHz
Frame rate : 93.750 FPS (512 SPF)
Bit depth : 24 bits
Compression mode : Lossy
Stream size : 652 MiB (16%)
Title : English DTS-5.1
Language : English
Default : No
Forced : No

Text #1
ID : 4
Format : PGS
Codec ID : S_HDMV/PGS
Codec ID/Info : Picture based subtitle format used on BDs/HD-DVDs
Duration : 1 h 56 min
Bit rate : 24.0 kb/s
Count of elements : 1880
Stream size : 20.0 MiB (0%)
Title : Thai 1080p PGS
Language : Thai
Default : Yes
Forced : No

Text #2
ID : 5
Format : VobSub
Codec ID : S_VOBSUB
Codec ID/Info : Picture based subtitle format used on DVDs
Duration : 1 h 56 min
Bit rate : 5 623 b/s
Count of elements : 927
Stream size : 4.70 MiB (0%)
Title : Thai 1080p
Language : Thai
Default : No
Forced : No

Text #3
ID : 6
Format : PGS
Codec ID : S_HDMV/PGS
Codec ID/Info : Picture based subtitle format used on BDs/HD-DVDs
Duration : 1 h 56 min
Bit rate : 23.5 kb/s
Count of elements : 1880
Stream size : 19.6 MiB (0%)
Title : Thai 1080p Out PGS
Language : Thai
Default : No
Forced : No

Text #4
ID : 7
Format : VobSub
Codec ID : S_VOBSUB
Codec ID/Info : Picture based subtitle format used on DVDs
Duration : 1 h 56 min
Bit rate : 5 507 b/s
Count of elements : 927
Stream size : 4.60 MiB (0%)
Title : Thai 1080p Out
Language : Thai
Default : No
Forced : No

Text #5
ID : 8
Format : VobSub
Codec ID : S_VOBSUB
Codec ID/Info : Picture based subtitle format used on DVDs
Duration : 1 h 56 min
Bit rate : 7 711 b/s
Count of elements : 927
Stream size : 6.44 MiB (0%)
Title : Thai 1080p Big [Yellow]
Language : Thai
Default : No
Forced : No

Text #6
ID : 9
Format : PGS
Codec ID : S_HDMV/PGS
Codec ID/Info : Picture based subtitle format used on BDs/HD-DVDs
Duration : 1 h 48 min
Bit rate : 27.9 kb/s
Count of elements : 2298
Stream size : 21.6 MiB (1%)
Title : English [SDH]
Language : English
Default : No
Forced : No

Text #7
ID : 10
Format : UTF-8
Codec ID : S_TEXT/UTF8
Codec ID/Info : UTF-8 Plain Text
Duration : 1 h 44 min
Bit rate : 36 b/s
Count of elements : 947
Stream size : 27.9 KiB (0%)
Title : English SRT
Language : English
Default : No
Forced : No

Menu
00:00:00.000 : en:00:00:00.000
00:08:32.053 : en:00:08:32.053
00:12:57.860 : en:00:12:57.860
00:18:48.294 : en:00:18:48.294
00:24:35.599 : en:00:24:35.599
00:28:54.107 : en:00:28:54.107
00:34:02.916 : en:00:34:02.916
00:39:41.754 : en:00:39:41.754
00:48:59.103 : en:00:48:59.103
00:56:04.987 : en:00:56:04.987
00:59:55.842 : en:00:59:55.842
01:06:37.535 : en:01:06:37.535
01:12:14.997 : en:01:12:14.997
01:17:09.041 : en:01:17:09.041
01:23:09.693 : en:01:23:09.693
01:28:13.121 : en:01:28:13.121
01:32:06.396 : en:01:32:06.396
01:39:01.769 : en:01:39:01.769
01:44:39.482 : en:01:44:39.482
01:54:37.829 : en:01:54:37.829

DOWNLOAD


PART01 |||| PART02 |||| PART03 |||| PART04 |||| PART05

PART01 |||| PART02 |||| PART03 |||| PART04 |||| PART05

PART01 |||| PART02 |||| PART03 |||| PART04 |||| PART05

PART01 |||| PART02 |||| PART03 |||| PART04 |||| PART05

PART01 |||| PART02 |||| PART03 |||| PART04 |||| PART05


Leave A Reply

อีเมล์ของคุณจะไม่แสดงให้เห็น Your email address will not be published.

%d bloggers like this: