[MINI Super-HQ] Anon (2018) แหกกฏล่า ฆ่าล้ำอนาคต [1080p] [พากย์ไทย 5.1 + เสียงอังกฤษ DTS] [บรรยายไทย + อังกฤษ] [เสียงไทย + ซับไทย] [OPENLOAD]

0

Anon (2018)

โหลดหนัง Anon (2018) แหกกฏล่า ฆ่าล้ำอนาคต

Anon (2018) 1h 40min | Sci-Fi, Thriller | 4 May 2018 (USA) Summary: In a world without anonymity or crime, a detective meets a woman who threatens their security.
Countries: Germany, USA, CanadaLanguages: English

เรื่องย่อ Anon (2018) แหกกฏล่า ฆ่าล้ำอนาคต

“Anon อานอน แหกกฎล่า ฆ่าล้ำอนาคต” บอกเล่าเรื่องราวของ ซัล ฟรีแลนด์ (ไคลฟ์ โอเวน) ตำรวจผู้เผชิญกับคดีฆาตกรรมต่อเนื่องที่ดูเหมือนว่าทุกคดีมีส่วนเกี่ยวข้องกัน ซัลได้ออกตามหาตัวคนร้ายเหมือนดั่งที่นักสืบทั่วไปทำ แต่ในสถานที่ราวกับโลกอนาคตแห่งนั้นซัลมีข้อได้เปรียบข้อหนึ่งที่สามารถช่วยในการไขคดีเหล่านั้น นั่นคือระบบที่บันทึกกิจกรรมทุกอย่างของทุกๆ คนด้วยความถี่ระดับเสี้ยววินาทีข้อมูลเหล่านั้นจะถูกบันทึกลงบนฐานข้อมูลที่มีชื่อว่า The Ether ซึ่งเหล่าผู้รักษากฎหมายสามารถเข้าถึงฐานข้อมูลนี้ได ้มนุษย์ทุกคนจะต้องได้รับการฝัง คอมพิวเตอร์ชีวภาพ (biosyn computer) ที่จะบันทึกทุกกิจกรรมในชีวิตของพวกเขาคอมพิวเตอร์นี้ชื่อว่า The Mind’s Eye ซึ่งมันทำให้ทุกคนไม่มีความเป็นส่วนตัวอีกต่อไป เพียงแค่คุณเดินไปตามท้องถนนคุณก็สามารถเห็นข้อมูลของทุกคนที่ปรากฏต่อสายตาของคุณ คุณจะเห็นว่าพวกเขาใส่นาฬิกายี่ห้ออะไร พวกเขาซื้อรถที่ไหนข้อมูลเหล่านั้นจะปรากฏในสายตาของคุณความเป็นส่วนตัว ทั้งหมดที่คุณรู้จักจะสูญหายไปจากโลกนี้และมันก็คือจุดสิ้นสุดของการก่ออาชญากรรม ถึงแม้ว่าจะมีการก่อคดี ผู้ต้องหาก็จะถูกมัดด้วยหลักฐานอย่างง่ายดายและการสอบสวนก็กลายเป็นแค่งานเอกสาร ตำรวจเป็นแค่สัญลักษณ์ การดำเนินกระบวนการทางกฎหมายอันยืดยาวเหลือเพียงแค่ขั้นตอนสั้น ๆ ดั่งดาวน์โหลดจากทางอินเทอร์เน็ต!!! แต่เมื่อ ซัล ได้ค้นลงไปในคดีเหล่านั้น พวกมันมีสิ่งหนึ่งที่คล้ายคลึงกัน สิ่งนั้นคือสัญญาณของการพังทลายของระบบที่สังคมให้ความเชื่อถือมีใครบางคนค้นพบวิธีเจาะระบบ The Ether เพื่อไปดัดแปลงบันทึกข้างในเพื่อปกปิดการก่ออาชญากรรมซัลและหัวหน้าของเขา ชาลส์ แกททิส (คลอม ฟิโอเร) ต้องรับมือกับความกดดันที่พวกเขาไม่เคยเผชิญมาก่อนพวกเขาต้องหาผู้กระทำผิดและอุดรอยรั่วของระบบนี้ให้ได้ในขณะที่เขาได้ทำการสืบสวนคดีนี้เขาได้พบกับเรื่องที่ทำให้เขาประหลาดใจ ซึ่งในตอนแรกเขาคิดว่ามันเป็นเพียงสิ่งที่ไม่สำคัญ ในขณะที่เขากำลังเดินอยู่บนท้องถนนเขาได้พบกับหญิงสาวคนหนึ่ง (อะแมนดา ไซเฟร็ด) ที่ Mind’s Eye ของเขาไม่สามารถระบุตัวตนได้ แรกเริ่มเขาคิดว่ามันเป็นความผิดพลาดของระบบแต่แล้วเขาก็ตระหนักได้ว่าหญิงสาวคนนั้นคือเบาะแสชิ้นแรกของเขา และนั่นจึงเป็นจุดเริ่มต้นของภารกิจในการตามหาหญิงสาวคนนั้นที่ไม่ควรมีตัวตนอยู่จริง!!!

Complete name : [MINI Super-HQ]_Anon.2018.1080p.BrRip.DTS.x264.One2loadup.com.mkv
Format : Matroska
Format version : Version 4
File size : 3.93 GiB
Duration : 1 h 39 min
Overall bit rate : 5 634 kb/s
Movie name : [MINI Super-HQ]_Anon.2018.1080p.BrRip.DTS.x264.One2loadup.com
Encoded date : UTC 2010-02-22 21:41:31
Writing application : mkvmerge v5.9.0 (‘On The Loose’) built on Dec 9 2012 15:37:01
Writing library : libebml v1.3.0 + libmatroska v1.4.0

Video
ID : 1
Format : AVC
Format/Info : Advanced Video Codec
Format profile : [email protected]
Format settings : CABAC / 4 Ref Frames
Format settings, CABAC : Yes
Format settings, ReFrames : 4 frames
Codec ID : V_MPEG4/ISO/AVC
Duration : 1 h 39 min
Bit rate : 4 303 kb/s
Width : 1 920 pixels
Height : 800 pixels
Display aspect ratio : 2.40:1
Frame rate mode : Constant
Frame rate : 23.976 FPS
Color space : YUV
Chroma subsampling : 4:2:0
Bit depth : 8 bits
Scan type : Progressive
Bits/(Pixel*Frame) : 0.117
Stream size : 3.01 GiB (77%)
Title : [MINI Super-HQ][email protected]
Writing library : x264 core 130 r2273 b3065e6
Encoding settings : cabac=1 / ref=3 / deblock=1:0:0 / analyse=0x3:0x113 / me=umh / subme=11 / psy=1 / psy_rd=1.00:0.00 / mixed_ref=1 / me_range=48 / chroma_me=1 / trellis=2 / 8x8dct=1 / cqm=0 / deadzone=21,11 / fast_pskip=1 / chroma_qp_offset=-2 / threads=10 / lookahead_threads=1 / sliced_threads=0 / nr=0 / decimate=1 / interlaced=0 / bluray_compat=0 / constrained_intra=0 / bframes=3 / b_pyramid=2 / b_adapt=1 / b_bias=0 / direct=1 / weightb=1 / open_gop=0 / weightp=2 / keyint=240 / keyint_min=24 / scenecut=40 / intra_refresh=0 / rc_lookahead=40 / rc=2pass / mbtree=1 / bitrate=4303 / ratetol=1.0 / qcomp=0.60 / qpmin=0 / qpmax=69 / qpstep=4 / cplxblur=20.0 / qblur=0.5 / ip_ratio=1.40 / aq=1:1.00
Language : English
Default : Yes
Forced : No
Color range : Limited
Color primaries : BT.709
Transfer characteristics : BT.709
Matrix coefficients : BT.709

Audio #1
ID : 2
Format : AC-3
Format/Info : Audio Coding 3
Commercial name : Dolby Digital
Codec ID : A_AC3
Duration : 1 h 39 min
Bit rate mode : Constant
Bit rate : 448 kb/s
Channel(s) : 6 channels
Channel layout : L R C LFE Ls Rs
Sampling rate : 48.0 kHz
Frame rate : 31.250 FPS (1536 SPF)
Bit depth : 16 bits
Compression mode : Lossy
Stream size : 320 MiB (8%)
Title : Thai DVD Master
Language : Thai
Service kind : Complete Main
Default : Yes
Forced : Yes

Audio #2
ID : 3
Format : DTS
Format/Info : Digital Theater Systems
Codec ID : A_DTS
Duration : 1 h 39 min
Bit rate mode : Constant
Bit rate : 755 kb/s
Channel(s) : 6 channels
Channel layout : C L R Ls Rs LFE
Sampling rate : 48.0 kHz
Frame rate : 93.750 FPS (512 SPF)
Bit depth : 24 bits
Compression mode : Lossy
Stream size : 539 MiB (13%)
Title : English DTS
Language : English
Default : No
Forced : No

Text #1
ID : 4
Format : VobSub
Codec ID : S_VOBSUB
Codec ID/Info : Picture based subtitle format used on DVDs
Title : Thai 480p From DVD Master
Language : Thai
Default : No
Forced : Yes

Text #2
ID : 5
Format : VobSub
Codec ID : S_VOBSUB
Codec ID/Info : Picture based subtitle format used on DVDs
Title : Thai 720p
Language : Thai
Default : No
Forced : No

Text #3
ID : 6
Format : VobSub
Codec ID : S_VOBSUB
Codec ID/Info : Picture based subtitle format used on DVDs
Title : Thai 1080p
Language : Thai
Default : Yes
Forced : Yes

Text #4
ID : 7
Format : VobSub
Codec ID : S_VOBSUB
Codec ID/Info : Picture based subtitle format used on DVDs
Title : Thai 1080p Yellow
Language : Thai
Default : No
Forced : No

Text #5
ID : 8
Format : VobSub
Codec ID : S_VOBSUB
Codec ID/Info : Picture based subtitle format used on DVDs
Title : Thai 1080p Out
Language : Thai
Default : No
Forced : No

Text #6
ID : 9
Format : VobSub
Codec ID : S_VOBSUB
Codec ID/Info : Picture based subtitle format used on DVDs
Title : Thai 1080p BIG
Language : Thai
Default : No
Forced : No

Text #7
ID : 10
Format : VobSub
Codec ID : S_VOBSUB
Codec ID/Info : Picture based subtitle format used on DVDs
Title : Thai 1080p Out [BIG]
Language : Thai
Default : No
Forced : No

Text #8
ID : 11
Format : PGS
Codec ID : S_HDMV/PGS
Codec ID/Info : Picture based subtitle format used on BDs/HD-DVDs
Title : Thai PGS
Language : Thai
Default : No
Forced : No

Text #9
ID : 12
Format : PGS
Codec ID : S_HDMV/PGS
Codec ID/Info : Picture based subtitle format used on BDs/HD-DVDs
Title : Thai PGS Yellow
Language : Thai
Default : No
Forced : No

Text #10
ID : 13
Format : PGS
Codec ID : S_HDMV/PGS
Codec ID/Info : Picture based subtitle format used on BDs/HD-DVDs
Title : Thai PGS Out
Language : Thai
Default : No
Forced : No

Text #11
ID : 14
Format : VobSub
Codec ID : S_VOBSUB
Codec ID/Info : Picture based subtitle format used on DVDs
Title : English
Language : English
Default : No
Forced : No

Menu
00:00:00.000 : en:Chapter 1
00:21:58.859 : en:Chapter 2
00:31:47.572 : en:Chapter 3
00:41:29.236 : en:Chapter 4
01:01:34.482 : en:Chapter 5
01:14:49.735 : en:Chapter 6
01:22:25.732 : en:Chapter 7
01:32:05.603 : en:Chapter 8

 

DOWNLOAD


PART01 |||| PART02 |||| PART03 |||| PART04

PART01 |||| PART02 |||| PART03 |||| PART04

PART01 |||| PART02 |||| PART03 |||| PART04

PART01 |||| PART02 |||| PART03 |||| PART04


Leave A Reply

Your email address will not be published.

%d bloggers like this: