[MINI Super-HQ] #Alive (2020) คนเป็นฝ่านรกซอมบี้ [1080p] [NETFLIX] [พากย์ไทย 5.1 + เสียงเกาหลี 5.1] [บรรยายไทย + อังกฤษ] [เสียงไทย + ซับไทย] [PANDAFILE]

0

โหลดหนัง #Alive (2020) คนเป็นฝ่านรกซอมบี้

#Alive (2020) 1h 38min | Action, Drama, Horror | 8 September 2020 (USA) Summary: The rapid spread of an unknown infection has left an entire city in ungovernable chaos, but one survivor remains alive in isolation. It is his story.
Countries: South KoreaLanguages: Korean

เรื่องย่อ #Alive (2020) คนเป็นฝ่านรกซอมบี้

Alive: คนเป็นฝ่านรกซอมบี้ อ้างอิงจากหนังอเมริกันเรื่อง Alone ของผู้เขียนบท แมตต์ เนย์เลอร์ โดยในภาพยนตร์ Alive ทางผู้เขียนบทแมตต์ และผู้กำกับโชอิลฮยอง ได้ช่วยกันปรับบทเพื่อให้เข้ากับเวอร์ชั่นเกาหลีใต้ ตัวภาพยนตร์เข้าฉายในเกาหลีเมื่อเดือนมิถุนายนที่ผ่านมา และสร้างกระแสให้โรงภาพยนตร์ตื่นตัวขึ้นมาก ด้วยสถิติผู้เข้าชมมากกว่าหนึ่งล้านคนภายในหนึ่งสัปดาห์ ขึ้นเป็นภาพยนตร์เรื่องแรกที่มียอดผู้ชมเกิน 1 ล้านคนตั้งแต่เดือนกุมภาพันธ์ 2020 ที่วิกฤตการณ์โควิด -19 เริ่มระบาดไปทั่วโลก เป็นกระแส Talk of the Town ด้วยพล็อตโรคระบาด ภาพยนตร์บล็อกบัสเตอร์เรื่องนี้กลายเป็นกระแส Talk of the Town ด้วยพล็อตโรคระบาดที่เข้ากับสถานการณ์ในตอนนี้ เพียงแต่การติดเชื้อที่ปรากฏใน Alive คือเชื้อไวรัสซอมบี้ที่แพร่กระจายอย่างรวดเร็วไปทั่วโซลจนควบคุมไม่ได้ ผู้รอดชีวิตที่หลงเหลืออยู่ในอพาร์ทเมนต์แห่งหนึ่ง จุนวู (รับบทโดย ยูอาอิน) และ ยูบิน (รับบทโดย พัคชินฮเย) ต่างเอาตัวรอดเงียบๆ อยู่ในห้อง เพื่อให้พ้นจากฝูงซอมบี้บ้าคลั่ง เมื่อทุกอย่างทั้งอินเทอร์เน็ต โทรศัพท์ ไฟฟ้า น้ำประปาเริ่มใช้งานไม่ได้ พวกเขาจะเอาชีวิตรอดได้อย่างไร?

โอจุนวู เด็กหนุ่มในวัยที่ติดเกมคอมพิวเตอร์และโซเชียลมีเดีย การเลือกใช้เทคโนโลยีในการเอาชีวิตรอดจึงเป็นสิ่งที่ เขาถนัด ขณะเดียวกัน คิมยูบิน เป็นหญิงสาวที่ใช้อุปกรณ์แคมป์ปิ้งและกล้องส่องทางไก ลในการเอาตัวรอด ความแตกต่างของทั้งคู่ทำให้พวกเขารวมแท็คทีม #ต้องรอด ไปด้วยกัน!!!

Complete name : [MINI Super-HQ]_Alive.2020.1080p.NF.WEB-DL.EAC3.x264.One2loadup.com.mkv
Format : Matroska
Format version : Version 4
File size : 4.66 GiB
Duration : 1 h 38 min
Overall bit rate mode : Variable
Overall bit rate : 6 775 kb/s
Movie name : [MINI Super-HQ]_Alive.2020.1080p.NF.WEB-DL.EAC3.x264.One2loadup.com
Encoded date : UTC 2020-09-08 08:15:29
Writing application : mkvmerge v49.0.0 (‘Sick Of Losing Soulmates’) 64-bit
Writing library : libebml v1.4.0 + libmatroska v1.6.1

Video
ID : 1
Format : AVC
Format/Info : Advanced Video Codec
Format profile : [email protected]
Format settings : CABAC / 3 Ref Frames
Format settings, CABAC : Yes
Format settings, ReFrames : 3 frames
Codec ID : V_MPEG4/ISO/AVC
Duration : 1 h 38 min
Bit rate mode : Variable
Bit rate : 5 360 kb/s
Maximum bit rate : 8 040 kb/s
Width : 1 920 pixels
Height : 1 080 pixels
Display aspect ratio : 16:9
Frame rate mode : Constant
Frame rate : 23.976 (24000/1001) FPS
Color space : YUV
Chroma subsampling : 4:2:0
Bit depth : 8 bits
Scan type : Progressive
Bits/(Pixel*Frame) : 0.108
Stream size : 3.67 GiB (79%)
Title : [MINI Super-HQ]_Alive.2020.1080p.NF.WEB-DL.EAC3.x264.One2loadup.com
Writing library : x264 core 148 r2722 1b0121b
Encoding settings : cabac=1 / ref=3 / deblock=1:0:0 / analyse=0x1:0x111 / me=umh / subme=10 / psy=1 / psy_rd=1.00:0.00 / mixed_ref=1 / me_range=24 / chroma_me=1 / trellis=2 / 8x8dct=0 / cqm=0 / deadzone=21,11 / fast_pskip=1 / chroma_qp_offset=-2 / threads=8 / lookahead_threads=1 / sliced_threads=0 / nr=0 / decimate=1 / interlaced=0 / bluray_compat=0 / stitchable=1 / constrained_intra=0 / bframes=2 / b_pyramid=0 / b_adapt=2 / b_bias=0 / direct=3 / weightb=1 / open_gop=0 / weightp=2 / keyint=250 / keyint_min=23 / scenecut=0 / intra_refresh=0 / rc_lookahead=48 / rc=2pass / mbtree=1 / bitrate=5360 / ratetol=1.0 / qcomp=0.50 / qpmin=6 / qpmax=51 / qpstep=4 / cplxblur=20.0 / qblur=0.5 / vbv_maxrate=8040 / vbv_bufsize=10720 / nal_hrd=vbr / filler=0 / ip_ratio=1.40 / aq=1:1.00
Language : Korean
Default : Yes
Forced : No

Audio #1
ID : 2
Format : E-AC-3 JOC
Format/Info : Enhanced AC-3 with Joint Object Coding
Commercial name : Dolby Digital Plus with Dolby Atmos
Codec ID : A_EAC3
Duration : 1 h 38 min
Bit rate mode : Constant
Bit rate : 768 kb/s
Channel(s) : 6 channels
Channel layout : L R C LFE Ls Rs
Sampling rate : 48.0 kHz
Frame rate : 31.250 FPS (1536 SPF)
Compression mode : Lossy
Stream size : 541 MiB (11%)
Language : Korean
Service kind : Complete Main
Default : No
Forced : No
Complexity index : 16
Number of dynamic objects : 15
Bed channel count : 1 channel
Bed channel configuration : LFE

Audio #2
ID : 3
Format : E-AC-3
Format/Info : Enhanced AC-3
Commercial name : Dolby Digital Plus
Codec ID : A_EAC3
Duration : 1 h 38 min
Bit rate mode : Constant
Bit rate : 640 kb/s
Channel(s) : 6 channels
Channel layout : L R C LFE Ls Rs
Sampling rate : 48.0 kHz
Frame rate : 31.250 FPS (1536 SPF)
Compression mode : Lossy
Stream size : 451 MiB (9%)
Language : Thai
Service kind : Complete Main
Default : Yes
Forced : No

Text #1
ID : 4
Format : UTF-8
Codec ID : S_TEXT/UTF8
Codec ID/Info : UTF-8 Plain Text
Duration : 1 h 37 min
Bit rate : 58 b/s
Count of elements : 665
Stream size : 41.5 KiB (0%)
Title : Thai SRT From Netflix
Language : Thai
Default : Yes
Forced : No

Text #2
ID : 5
Format : UTF-8
Codec ID : S_TEXT/UTF8
Codec ID/Info : UTF-8 Plain Text
Duration : 1 h 37 min
Bit rate : 6 b/s
Count of elements : 69
Stream size : 4.89 KiB (0%)
Title : Thai SRT From Netflix Forced
Language : Thai
Default : No
Forced : No

Text #3
ID : 6
Format : UTF-8
Codec ID : S_TEXT/UTF8
Codec ID/Info : UTF-8 Plain Text
Duration : 1 h 36 min
Bit rate : 25 b/s
Count of elements : 615
Stream size : 17.9 KiB (0%)
Title : English SRT
Language : English
Default : No
Forced : No

Text #4
ID : 7
Format : PGS
Muxing mode : zlib
Codec ID : S_HDMV/PGS
Codec ID/Info : Picture based subtitle format used on BDs/HD-DVDs
Duration : 1 h 37 min
Bit rate : 17.7 kb/s
Count of elements : 1330
Stream size : 12.3 MiB (0%)
Title : Thai PGS [Angsana]
Language : Thai
Default : No
Forced : No

Text #5
ID : 8
Format : PGS
Muxing mode : zlib
Codec ID : S_HDMV/PGS
Codec ID/Info : Picture based subtitle format used on BDs/HD-DVDs
Duration : 1 h 37 min
Bit rate : 17.7 kb/s
Count of elements : 1330
Stream size : 12.3 MiB (0%)
Title : Thai PGS [Angsana Yellow]
Language : Thai
Default : No
Forced : No

Text #6
ID : 9
Format : PGS
Muxing mode : zlib
Codec ID : S_HDMV/PGS
Codec ID/Info : Picture based subtitle format used on BDs/HD-DVDs
Duration : 1 h 37 min
Bit rate : 17.4 kb/s
Count of elements : 1330
Stream size : 12.1 MiB (0%)
Title : Thai PGS [Sarabun]
Language : Thai
Default : No
Forced : No

Text #7
ID : 10
Format : PGS
Muxing mode : zlib
Codec ID : S_HDMV/PGS
Codec ID/Info : Picture based subtitle format used on BDs/HD-DVDs
Duration : 1 h 37 min
Bit rate : 17.4 kb/s
Count of elements : 1330
Stream size : 12.1 MiB (0%)
Title : Thai PGS [Sarabun Yellow]
Language : Thai
Default : No
Forced : No

Text #8
ID : 11
Format : PGS
Muxing mode : zlib
Codec ID : S_HDMV/PGS
Codec ID/Info : Picture based subtitle format used on BDs/HD-DVDs
Duration : 1 h 36 min
Bit rate : 14.6 kb/s
Count of elements : 1230
Stream size : 10.1 MiB (0%)
Title : English PGS
Language : English
Default : No
Forced : No

DOWNLOAD


PART01 |||| PART02 |||| PART03 |||| PART04 |||| PART05

PART01 |||| PART02 |||| PART03 |||| PART04 |||| PART05

PART01 |||| PART02 |||| PART03 |||| PART04 |||| PART05

PART01 |||| PART02 |||| PART03 |||| PART04 |||| PART05

PART01 |||| PART02 |||| PART03 |||| PART04 |||| PART05



แจ้งหนังเสีย หรือโหลดไม่ได้ ทั้งลิ้งฟรีและ vip สามารถกดที่รูปด้านบนนี้ได้เลย

: Disable Comments
%d bloggers like this: