[MINI Super-HQ] About Time (2013) ย้อนเวลาให้เธอ(ปิ๊ง)รัก [1080p] [พากย์ไทย DTS + เสียงอังกฤษ DTS] [บรรยายไทย + อังกฤษ] [เสียงไทย + ซับไทย] [OPENLOAD]

0

About Time (2013) ย้อนเวลาให้เธอ(ปิ๊ง)รัก

โหลดหนัง About Time (2013) ย้อนเวลาให้เธอ(ปิ๊ง)รัก

About Time (2013) 2h 3min | Comedy, Drama, Fantasy | 10 October 2013 (Netherlands) Summary: At the age of 21, Tim discovers he can travel in time and change what happens and has happened in his own life. His decision to make his world a better place by getting a girlfriend turns out not to be as easy as you might think.
Countries: UKLanguages: English

เรื่องย่อ About Time (2013) ย้อนเวลาให้เธอ(ปิ๊ง)รัก

ในวัย 21 ปี ทิม เลค (โดห์นัลล์ กลีสัน) ค้นพบว่าตัวเองสามารถเดินทางย้อนเวลาได้ ในคืนหลังจากงานปาร์ตี้ที่ห่วยแตกในนิวยอร์ก พ่อของทิม (บิลล์ ไนฮีย์) ได้เล่าให้ลูกชายของเขาฟังว่า ผู้ชายในตระกูลเขามีความสามารถ ในการเดินทางย้อนเวลาเสมอ ทิมไม่สามารถเปลี่ยนแปลงประวัติศาสตร์ได้ แต่เขาสามารถเปลี่ยนแปลงสิ่งที่เกิดขึ้น และเคยเกิดขึ้นมาแล้วในชีวิตของเขาได้ เขาก็เลยตัดสินใจจะทำให้โลกนี้สวยงามขึ้น…ด้วยการหาแฟนซักคน น่าเศร้า ที่มันอาจไม่ได้ง่ายดายอย่างที่คุณคิด
หลังจากที่ย้ายจากคอร์นวอล ไปสู่ลอนดอน เพื่อฝึกฝนการเป็นทนายความ ในที่สุด ทิมก็ได้พบกับแมรี (เรเชล แม็คอดัมส์) สาวสวยที่ไม่มั่นใจในตัวเอง พวกเขาตกหลุมรักกัน แต่การเดินทางย้อนเวลาที่ผิดพลาดก็หมายความว่าเขาไม่เคยได้พบเธอเลย ดังนั้น พวกเขาก็เลยได้พบกันเป็นครั้งแรกอีกครั้ง และก็อีกครั้ง และท้ายที่สุด หลังจากการเดินทางข้ามเวลาหลายครั้งหลายหนอย่างชาญฉลาด เขาก็เอาชนะใจเธอได้สำเร็จ หลังจากนั้น ทิมก็ใช้พลังของตัวเองในการเนรมิตฉากขอแต่งงานที่โรแมนติกที่สุด ในการกอบกู้งานแต่งงานเขาจากคำอวยพรเพื่อนเจ้าบ่าวที่เลวร้ายที่สุด ในการช่วยเพื่อนรักของเขาจากหายนะทางหน้าที่การงานและในการพาภรรยาที่ตั้งครรภ์ของเขาไปโรงพยาบาลให้ทันเวลาคลอดลูกสาวของพวกเขา แม้จะมีรถติดอย่างวายป่วงนอกแอ็บบี้ โร้ดซักแค่ไหน
แต่ยิ่งชีวิตที่ไม่ธรรมดาของเขาเดินหน้าไปเท่าไหร่ ทิมก็ค้นพบว่าพรสวรรค์พิเศษนี้ของเขาไม่สามารถช่วยเขาไม่ให้เจอกับความโศกเศร้าและเรื่องราวดี และร้ายที่ส่งผลกระทบต่อทุกครอบครัว ทุกหนทุกแห่งได้ มันมีข้อจำกัดในสิ่งที่การเดินทางย้อนเวลาสามารถทำได้ และมันก็เป็นเรื่องอันตรายด้วยเช่นกัน Time เป็นคอมมิดี้เกี่ยวกับความรักและการเดินทางย้อนเวลา ซึ่งค้นพบในท้ายที่สุดว่า การใช้ชีวิตอย่างคุ้มค่าที่สุด อาจจะไม่ต้องอาศัยการเดินทางย้อนเวลาเลยซักนิด!!

Complete name : [MINI Super-HQ]_About.Time.2013.1080p.BrRip.DTS.x264.One2loadup.com.mkv
Format : Matroska
Format version : Version 4
File size : 4.34 GiB
Duration : 2 h 3 min
Overall bit rate : 5 038 kb/s
Movie name : [MINI Super-HQ]_About.Time.2013.1080p.BrRip.DTS.x264.One2loadup.com
Encoded date : UTC 2010-02-22 21:41:31
Writing application : mkvmerge v5.9.0 (‘On The Loose’) built on Dec 9 2012 15:37:01
Writing library : libebml v1.3.0 + libmatroska v1.4.0

Video
ID : 1
Format : AVC
Format/Info : Advanced Video Codec
Format profile : [email protected]
Format settings : CABAC / 4 Ref Frames
Format settings, CABAC : Yes
Format settings, ReFrames : 4 frames
Codec ID : V_MPEG4/ISO/AVC
Duration : 2 h 3 min
Bit rate : 3 209 kb/s
Width : 1 920 pixels
Height : 800 pixels
Display aspect ratio : 2.40:1
Frame rate mode : Constant
Frame rate : 23.976 (23976/1000) FPS
Color space : YUV
Chroma subsampling : 4:2:0
Bit depth : 8 bits
Scan type : Progressive
Bits/(Pixel*Frame) : 0.087
Stream size : 2.78 GiB (64%)
Title : [MINI Super-HQ]_About.Time.2013.1080p.BrRip.DTS.x264.One2loadup.com
Writing library : x264 core 120
Encoding settings : cabac=1 / ref=3 / deblock=1:0:0 / analyse=0x3:0x113 / me=umh / subme=10 / psy=1 / psy_rd=1.00:0.00 / mixed_ref=1 / me_range=24 / chroma_me=1 / trellis=2 / 8x8dct=1 / cqm=0 / deadzone=21,11 / fast_pskip=1 / chroma_qp_offset=-2 / threads=12 / sliced_threads=0 / nr=0 / decimate=1 / interlaced=0 / bluray_compat=0 / constrained_intra=0 / bframes=4 / b_pyramid=2 / b_adapt=2 / b_bias=0 / direct=1 / weightb=1 / open_gop=0 / weightp=2 / keyint=240 / keyint_min=24 / scenecut=40 / intra_refresh=0 / rc_lookahead=50 / rc=2pass / mbtree=1 / bitrate=3209 / ratetol=1.0 / qcomp=0.60 / qpmin=3 / qpmax=69 / qpstep=4 / cplxblur=20.0 / qblur=0.5 / ip_ratio=1.40 / aq=1:1.00
Language : Thai
Default : Yes
Forced : No
Color range : Limited
Color primaries : BT.709
Transfer characteristics : BT.709
Matrix coefficients : BT.709

Audio #1
ID : 2
Format : DTS
Format/Info : Digital Theater Systems
Codec ID : A_DTS
Duration : 2 h 3 min
Bit rate mode : Constant
Bit rate : 768 kb/s
Channel(s) : 6 channels
Channel layout : C L R Ls Rs LFE
Sampling rate : 48.0 kHz
Frame rate : 93.750 FPS (512 SPF)
Bit depth : 24 bits
Compression mode : Lossy
Stream size : 678 MiB (15%)
Title : Thai DTS BluRay Master
Language : Thai
Default : Yes
Forced : Yes

Audio #2
ID : 3
Format : AC-3
Format/Info : Audio Coding 3
Commercial name : Dolby Digital
Codec ID : A_AC3
Duration : 2 h 3 min
Bit rate mode : Constant
Bit rate : 192 kb/s
Channel(s) : 2 channels
Channel layout : L R
Sampling rate : 48.0 kHz
Frame rate : 31.250 FPS (1536 SPF)
Bit depth : 16 bits
Compression mode : Lossy
Stream size : 169 MiB (4%)
Title : English Commentary
Language : English
Service kind : Complete Main
Default : No
Forced : No

Audio #3
ID : 4
Format : DTS
Format/Info : Digital Theater Systems
Codec ID : A_DTS
Duration : 2 h 3 min
Bit rate mode : Constant
Bit rate : 755 kb/s
Channel(s) : 6 channels
Channel layout : C L R Ls Rs LFE
Sampling rate : 48.0 kHz
Frame rate : 93.750 FPS (512 SPF)
Bit depth : 24 bits
Compression mode : Lossy
Stream size : 666 MiB (15%)
Title : English DTS
Language : English
Default : No
Forced : No

Text #1
ID : 5
Format : VobSub
Codec ID : S_VOBSUB
Codec ID/Info : Picture based subtitle format used on DVDs
Title : Thai 480p
Language : Thai
Default : No
Forced : No

Text #2
ID : 6
Format : VobSub
Codec ID : S_VOBSUB
Codec ID/Info : Picture based subtitle format used on DVDs
Title : Thai 720p
Language : Thai
Default : No
Forced : No

Text #3
ID : 7
Format : VobSub
Codec ID : S_VOBSUB
Codec ID/Info : Picture based subtitle format used on DVDs
Title : Thai 1080p BluRay Master
Language : Thai
Default : Yes
Forced : Yes

Text #4
ID : 8
Format : VobSub
Codec ID : S_VOBSUB
Codec ID/Info : Picture based subtitle format used on DVDs
Title : Thai 1080p Out
Language : Thai
Default : No
Forced : No

Text #5
ID : 9
Format : VobSub
Codec ID : S_VOBSUB
Codec ID/Info : Picture based subtitle format used on DVDs
Title : Thai 1080p BIG
Language : Thai
Default : No
Forced : No

Text #6
ID : 10
Format : PGS
Codec ID : S_HDMV/PGS
Codec ID/Info : Picture based subtitle format used on BDs/HD-DVDs
Title : Thai PGS Out
Language : Thai
Default : No
Forced : No

Text #7
ID : 11
Format : PGS
Codec ID : S_HDMV/PGS
Codec ID/Info : Picture based subtitle format used on BDs/HD-DVDs
Title : Thai PGS BluRay Master
Language : Thai
Default : No
Forced : No

Text #8
ID : 12
Format : VobSub
Codec ID : S_VOBSUB
Codec ID/Info : Picture based subtitle format used on DVDs
Title : English
Language : English
Default : No
Forced : No

Text #9
ID : 13
Format : VobSub
Codec ID : S_VOBSUB
Codec ID/Info : Picture based subtitle format used on DVDs
Title : English Commentary
Language : English
Default : No
Forced : No

Menu
00:00:00.000 : en:Chapter 1
00:03:58.088 : en:Chapter 2
00:10:11.919 : en:Chapter 3
00:17:26.312 : en:Chapter 4
00:20:38.128 : en:Chapter 5
00:26:04.413 : en:Chapter 6
00:32:44.020 : en:Chapter 7
00:40:26.482 : en:Chapter 8
00:45:17.982 : en:Chapter 9
00:49:43.455 : en:Chapter 10
00:54:50.887 : en:Chapter 11
01:03:44.546 : en:Chapter 12
01:09:29.390 : en:Chapter 13
01:16:28.017 : en:Chapter 14
01:21:35.741 : en:Chapter 15
01:27:24.464 : en:Chapter 16
01:34:52.829 : en:Chapter 17
01:43:48.864 : en:Chapter 18
01:49:32.332 : en:Chapter 19
01:57:02.866 : en:Chapter 20

DOWNLOAD


PART01 |||| PART02 |||| PART03 |||| PART04 |||| PART05

PART01 |||| PART02 |||| PART03 |||| PART04 |||| PART05

PART01 |||| PART02 |||| PART03 |||| PART04 |||| PART05

PART01 |||| PART02 |||| PART03 |||| PART04 |||| PART05


Leave A Reply

Your email address will not be published.