[MINI Super-HQ] A Little Thing Called Love (First Love) (2010) สิ่งเล็กเล็กที่เรียกว่า…รัก [1080p] [พากย์ไทย 5.1 + 2.0] [ไม่มีบรรยาย] [เสียงไทย] [DOSYAUPLOAD]

2

โหลดหนัง A Little Thing Called Love (First Love) (2010) สิ่งเล็กเล็กที่เรียกว่า…รัก

A Little Thing Called Love | August 12, 2010 (Thailand) Summary: Life of a 14 year old girl Nam, who falls in love with her senior of tenth grade P'Shone and tries desperately to win his attention.
Countries: ThailandLanguages: Thai

เรื่องย่อ A Little Thing Called Love (First Love) (2010) สิ่งเล็กเล็กที่เรียกว่า…รัก ชิปส์

น้ำเด็กสาวอายุ 14 ปีเรียนอยู่ชั้น ม.1 ที่มีหน้าตาธรรมดาๆ และไม่สวยอะไร แต่เธอไปแอบชอบ พี่โชน พี่ม.4 ที่หล่อ เท่ ที่สุดในโรงเรียน แล้วแถมยังใจดีอีกต่างหาก ทำให้น้ำมีคู่แข่งเป็นสาวๆ ทั้งม.ต้นและม.ปลาย ที่มีแต่คนสวยๆ เต็มไปหมด แต่น้ำไม่ยอมแพ้ง่ายๆ เธอพยายามลุยทำทุกอย่าง สู้ทุกรูปแบบเพื่อที่จะเก่งและสวย แล้วเด่นขึ้นในโรงเรียนให้ได้ เพราะแอบหวังในสิ่งเล็กๆที่เรียกว่ารัก ว่าถ้าทำสำเร็จพี่โชนอาจจะหันมามองเธอซักครั้งน้ำทำตั้งแต่เอามะขามเปียกมาขัดผิว สมัครเป็นนางรำแม้จะถูกคัดออก หัดเป่าคาริเน็ตแล้วสมัครเข้าวงโยธวาทิตเพื่อที่จะได้อยู่ใกล้ ๆ พี่โชน ด้วยความช่วยเหลือของเพื่อนๆ แก๊งหน้าแย่ ในที่สุดน้ำก็ได้เป็นดรัมเมเยอร์มือหนึ่งของโรงเรียน จนตอนที่เรียนอยู่ ม.3 เธอได้เป็นดาวของโรงเรียน น้ำตกเป็นเป้าสายตาของหนุ่มๆ ทั้งโรงเรียน มีคนเข้ามาจีบเป็นสิบๆ คน ยกเว้น โชน คนที่เธอรอคอยอยู่คนเดียวแล้วเรื่องราวความรักเล็กๆของน้ำจะเป็นอย่างไร โชนจะหันมาสนใจเธอมั้ย สุดท้ายแล้วความรัก ความฝัน กับความเป็นจริง จะได้พบกันเมื่อไหร่ เวลาของสิ่งเล็กเล็กที่เรียกว่ารักคงเป็นคำตอบของทุกอย่างเอง

Complete name : [MINI Super-HQ]_A.Little.Thing.Called.Love.2010.1080p.BrRip.AC3.x264.One2loadup.com.mkv
Format : Matroska
Format version : Version 4
File size : 4.86 GiB
Duration : 1 h 58 min
Overall bit rate : 5 887 kb/s
Movie name : [MINI Super-HQ]_A.Little.Thing.Called.Love.2010.1080p.BrRip.AC3.x264.One2loadup.com
Encoded date : UTC 2021-02-17 20:06:38
Writing application : mkvmerge v53.0.0 (‘Fool’s Gold’) 64-bit
Writing library : libebml v1.4.1 + libmatroska v1.6.2

Video
ID : 1
Format : AVC
Format/Info : Advanced Video Codec
Format profile : [email protected]
Format settings : CABAC / 4 Ref Frames
Format settings, CABAC : Yes
Format settings, ReFrames : 4 frames
Format settings, GOP : M=4, N=50
Codec ID : V_MPEG4/ISO/AVC
Duration : 1 h 58 min
Bit rate : 4 927 kb/s
Width : 1 920 pixels
Height : 1 080 pixels
Display aspect ratio : 16:9
Frame rate mode : Constant
Frame rate : 25.000 FPS
Color space : YUV
Chroma subsampling : 4:2:0
Bit depth : 8 bits
Scan type : Progressive
Bits/(Pixel*Frame) : 0.095
Stream size : 4.07 GiB (84%)
Title : [MINI Super-HQ]_A.Little.Thing.Called.Love.2010.1080p.BrRip.AC3.x264.One2loadup.com
Language : Thai
Default : Yes
Forced : No

Audio #1
ID : 2
Format : AC-3
Format/Info : Audio Coding 3
Commercial name : Dolby Digital
Codec ID : A_AC3
Duration : 1 h 57 min
Bit rate mode : Constant
Bit rate : 448 kb/s
Channel(s) : 6 channels
Channel layout : L R C LFE Ls Rs
Sampling rate : 48.0 kHz
Frame rate : 31.250 FPS (1536 SPF)
Bit depth : 16 bits
Compression mode : Lossy
Delay relative to video : 21 s 100 ms
Stream size : 377 MiB (8%)
Title : Thai 5.1
Language : Thai
Service kind : Complete Main
Default : Yes
Forced : No

Audio #2
ID : 3
Format : AAC LC
Format/Info : Advanced Audio Codec Low Complexity
Codec ID : A_AAC-2
Duration : 1 h 58 min
Bit rate : 64.0 kb/s
Channel(s) : 2 channels
Channel layout : L R
Sampling rate : 32.0 kHz
Frame rate : 31.250 FPS (1024 SPF)
Compression mode : Lossy
Delay relative to video : 30 ms
Stream size : 54.1 MiB (1%)
Title : Thai ACC 2.0
Language : Thai
Default : No
Forced : No

Audio #3
ID : 4
Format : AC-3
Format/Info : Audio Coding 3
Commercial name : Dolby Digital
Codec ID : A_AC3
Duration : 1 h 57 min
Bit rate mode : Constant
Bit rate : 448 kb/s
Channel(s) : 2 channels
Channel layout : L R
Sampling rate : 48.0 kHz
Frame rate : 31.250 FPS (1536 SPF)
Bit depth : 16 bits
Compression mode : Lossy
Delay relative to video : 21 s 100 ms
Stream size : 377 MiB (8%)
Title : Thai 2.0
Language : Thai
Service kind : Complete Main
Default : No
Forced : No

Menu
00:00:00.000 : en:Chapter 01
00:05:08.360 : en:Chapter 02
00:11:39.080 : en:Chapter 03
00:19:53.400 : en:Chapter 04
00:27:08.640 : en:Chapter 05
00:33:21.040 : en:Chapter 06
00:40:10.320 : en:Chapter 07
00:45:57.400 : en:Chapter 08
00:54:02.320 : en:Chapter 09
01:00:49.280 : en:Chapter 10
01:06:53.280 : en:Chapter 11
01:13:56.680 : en:Chapter 12
01:20:36.120 : en:Chapter 13
01:26:29.320 : en:Chapter 14
01:32:33.120 : en:Chapter 15
01:39:45.080 : en:Chapter 16
01:45:32.160 : en:Chapter 17
01:51:36.200 : en:Chapter 18

DOWNLOAD


PART01 |||| PART02 |||| PART03 |||| PART04 |||| PART05

PART01 |||| PART02 |||| PART03 |||| PART04 |||| PART05

PART01 |||| PART02 |||| PART03 |||| PART04 |||| PART05

PART01 |||| PART02 |||| PART03 |||| PART04 |||| PART05

PART01 |||| PART02 |||| PART03 |||| PART04 |||| PART05


2 Comments
  1. Termpat Chulawongs
    Termpat Chulawongs says

    หนังยังไมได้อัปลง zolofile ครับ

    1. Admin
      Admin says

      แก้ไขเรียบร้อยฮ๊ะ

Leave A Reply

อีเมล์ของคุณจะไม่แสดงให้เห็น Your email address will not be published.

%d bloggers like this: