[MINI Super-HQ] A Dog’s Way Home (2019) เพื่อนรักผจญภัยสี่ร้อยไมล์ [1080p] [พากย์ไทย 2.0 + เสียงอังกฤษ DTS] [บรรยายไทย + อังกฤษ] [เสียงไทยมาสเตอร์ + ซับไทย] [OPENLOAD]

0

A Dog's Way Home (2019)

โหลดหนัง A Dog’s Way Home (2019) เพื่อนรักผจญภัยสี่ร้อยไมล์ 

A Dog's Way Home (2019) 1h 36min | Adventure, Drama, Family | 31 December 2019 (Netherlands) Summary: A female dog travels four hundred miles in search of her owner throughout a Colorado wilderness.
Countries: China, USALanguages: English

เรื่องย่อ A Dog’s Way Home (2019) เพื่อนรักผจญภัยสี่ร้อยไมล์

เรื่องราวของหนังจะบอกเล่าถึงชีวิตอันเรียบง่ายของน้องหมาเพศเมียชื่อ เบลล่า(พากย์โดย Bryce Dallas Howard) ที่ตั้งแต่เล็กจนโตไม่เคยห่างจากลูคัส (Jonah Hauer-King) เจ้านายหนุ่มแสนรักและคุณแม่แสนใจดี (Ashley Judd)
แต่ชีวิตมนุษย์ไม่ได้เรียบง่ายแบบสุนัขเพราะลูคัสเติบโตขึ้นและต้องทำงานจนไม่มีเวลามาเล่นสนุกเมื่อเมื่อก่อน…วันนึงเบลล่า ที่กำลังเบื่อได้ออกไปวิ่งไล่กระรอกและพลัดหลงจากบ้านไปไกลจนหาทางกลับไม่ถูกการผจญภัยเพื่อหาทางกลับบ้านของเจ้าเบลล่าจึงเปิดฉากขึ้น!!!

Complete name : [MINI Super-HQ]_A.Dog.s.Way.Home.2019.1080p.BrRip.DTS.x264.TH.2.0.One2loadup.com.mkv
Format : Matroska
Format version : Version 4
File size : 4.16 GiB
Duration : 1 h 35 min
Overall bit rate : 6 207 kb/s
Movie name : [MINI Super-HQ]_A.Dog.s.Way.Home.2019.1080p.BrRip.DTS.x264.TH.2.0.One2loadup.com
Encoded date : UTC 2010-02-22 21:41:31
Writing application : mkvmerge v5.9.0 (‘On The Loose’) built on Dec 9 2012 15:37:01
Writing library : libebml v1.3.0 + libmatroska v1.4.0

Video
ID : 1
Format : AVC
Format/Info : Advanced Video Codec
Format profile : [email protected]
Format settings : CABAC / 4 Ref Frames
Format settings, CABAC : Yes
Format settings, ReFrames : 4 frames
Codec ID : V_MPEG4/ISO/AVC
Duration : 1 h 35 min
Bit rate : 4 939 kb/s
Width : 1 920 pixels
Height : 804 pixels
Display aspect ratio : 2.40:1
Frame rate mode : Constant
Frame rate : 23.976 (24000/1001) FPS
Color space : YUV
Chroma subsampling : 4:2:0
Bit depth : 8 bits
Scan type : Progressive
Bits/(Pixel*Frame) : 0.133
Stream size : 3.31 GiB (80%)
Title : [MINI Super-HQ]_A.Dog.s.Way.Home.2019.1080p.BrRip.DTS.x264.TH.2.0.One2loadup.com
Writing library : x264 core 130 r2273 b3065e6
Encoding settings : cabac=1 / ref=3 / deblock=1:0:0 / analyse=0x3:0x113 / me=umh / subme=11 / psy=1 / psy_rd=1.00:0.00 / mixed_ref=1 / me_range=48 / chroma_me=1 / trellis=2 / 8x8dct=1 / cqm=0 / deadzone=21,11 / fast_pskip=1 / chroma_qp_offset=-2 / threads=10 / lookahead_threads=1 / sliced_threads=0 / nr=0 / decimate=1 / interlaced=0 / bluray_compat=0 / constrained_intra=0 / bframes=3 / b_pyramid=2 / b_adapt=1 / b_bias=0 / direct=1 / weightb=1 / open_gop=0 / weightp=2 / keyint=240 / keyint_min=24 / scenecut=40 / intra_refresh=0 / rc_lookahead=40 / rc=2pass / mbtree=1 / bitrate=4939 / ratetol=1.0 / qcomp=0.60 / qpmin=0 / qpmax=69 / qpstep=4 / cplxblur=20.0 / qblur=0.5 / ip_ratio=1.40 / aq=1:1.00
Language : English
Default : Yes
Forced : No
Color range : Limited
Color primaries : BT.709
Transfer characteristics : BT.709
Matrix coefficients : BT.709

Audio #1
ID : 2
Format : AC-3
Format/Info : Audio Coding 3
Commercial name : Dolby Digital
Codec ID : A_AC3
Duration : 1 h 35 min
Bit rate mode : Constant
Bit rate : 384 kb/s
Channel(s) : 2 channels
Channel layout : L R
Sampling rate : 48.0 kHz
Frame rate : 31.250 FPS (1536 SPF)
Bit depth : 16 bits
Compression mode : Lossy
Stream size : 263 MiB (6%)
Title : Thai Master
Language : Thai
Service kind : Complete Main
Default : Yes
Forced : Yes

Audio #2
ID : 3
Format : DTS
Format/Info : Digital Theater Systems
Codec ID : A_DTS
Duration : 1 h 35 min
Bit rate mode : Constant
Bit rate : 755 kb/s
Channel(s) : 6 channels
Channel layout : C L R Ls Rs LFE
Sampling rate : 48.0 kHz
Frame rate : 93.750 FPS (512 SPF)
Bit depth : 24 bits
Compression mode : Lossy
Stream size : 518 MiB (12%)
Title : English DTS
Language : English
Default : No
Forced : No

Text #1
ID : 4
Format : VobSub
Codec ID : S_VOBSUB
Codec ID/Info : Picture based subtitle format used on DVDs
Language : Thai
Default : Yes
Forced : Yes

Text #2
ID : 5
Format : VobSub
Codec ID : S_VOBSUB
Codec ID/Info : Picture based subtitle format used on DVDs
Title : Thai 480p
Language : Thai
Default : No
Forced : No

Text #3
ID : 6
Format : VobSub
Codec ID : S_VOBSUB
Codec ID/Info : Picture based subtitle format used on DVDs
Title : Thai 720p
Language : Thai
Default : No
Forced : No

Text #4
ID : 7
Format : VobSub
Codec ID : S_VOBSUB
Codec ID/Info : Picture based subtitle format used on DVDs
Title : Thai 1080p
Language : Thai
Default : No
Forced : No

Text #5
ID : 8
Format : VobSub
Codec ID : S_VOBSUB
Codec ID/Info : Picture based subtitle format used on DVDs
Title : Thai 1080p Yellow
Language : Thai
Default : No
Forced : No

Text #6
ID : 9
Format : VobSub
Codec ID : S_VOBSUB
Codec ID/Info : Picture based subtitle format used on DVDs
Title : Thai 1080p Out
Language : Thai
Default : No
Forced : No

Text #7
ID : 10
Format : VobSub
Codec ID : S_VOBSUB
Codec ID/Info : Picture based subtitle format used on DVDs
Title : Thai 1080p BIG
Language : Thai
Default : No
Forced : No

Text #8
ID : 11
Format : PGS
Codec ID : S_HDMV/PGS
Codec ID/Info : Picture based subtitle format used on BDs/HD-DVDs
Title : Thai PGS BluRay Master
Language : Thai
Default : No
Forced : No

Text #9
ID : 12
Format : PGS
Codec ID : S_HDMV/PGS
Codec ID/Info : Picture based subtitle format used on BDs/HD-DVDs
Title : Thai PGS Out
Language : Thai
Default : No
Forced : No

Text #10
ID : 13
Format : PGS
Codec ID : S_HDMV/PGS
Codec ID/Info : Picture based subtitle format used on BDs/HD-DVDs
Title : English
Language : English
Default : No
Forced : No

Menu
00:00:00.000 : en:Chapter 1
00:06:45.113 : en:Chapter 2
00:11:38.114 : en:Chapter 3
00:18:29.358 : en:Chapter 4
00:21:30.956 : en:Chapter 5
00:27:09.419 : en:Chapter 6
00:33:17.871 : en:Chapter 7
00:39:45.258 : en:Chapter 8
00:48:28.823 : en:Chapter 9
00:53:55.858 : en:Chapter 10
01:01:23.638 : en:Chapter 11
01:06:28.193 : en:Chapter 12
01:10:10.289 : en:Chapter 13
01:15:09.505 : en:Chapter 14
01:17:34.608 : en:Chapter 15
01:24:09.962 : en:Chapter 16

DOWNLOAD


PART01 |||| PART02 |||| PART03 |||| PART04 |||| PART05

PART01 |||| PART02 |||| PART03 |||| PART04 |||| PART05

PART01 |||| PART02 |||| PART03 |||| PART04 |||| PART05

PART01 |||| PART02 |||| PART03 |||| PART04 |||| PART05


Leave A Reply

Your email address will not be published.