[MINI Super-HQ] 1917 (2019) หนึ่งเก้าหนึ่งเจ็ด มหาสงครามสะเทือนโลก [1080p] [พากย์ไทย 5.1 + เสียงอังกฤษ DTS] [บรรยายไทย + อังกฤษ] [เสียงไทย + ซับไทย] [PANDAFILE]

0

โหลดหนัง 1917 (2019) หนึ่งเก้าหนึ่งเจ็ด มหาสงครามสะเทือนโลก

1917 (2019) 1h 59min | Drama, Thriller, War | 10 January 2020 (USA) Summary: April 6th, 1917. As a regiment assembles to wage war deep in enemy territory, two soldiers are assigned to race against time and deliver a message that will stop 1,600 men from walking straight into a deadly trap.
Countries: USA, UK, India, Spain, Canada, ChinaLanguages: English, French, German

เรื่องย่อ 1917 (2019) หนึ่งเก้าหนึ่งเจ็ด มหาสงครามสะเทือนโลก

แชม เมนเดส ผู้กำกับรางวัลออสการ์ที่เคยมีผลงานอย่าง Skyfall, Spectre และ American Beauty นำเสนอมุมมองที่แตกต่างในภาพยนตร์เกี่ยวกับสงครามโลกครั้งที่ 1 ในภาพยนตร์ 1917 โดยได้ โรเจอร์ ดีกินส์ ผู้กำกับภาพเจ้าของรางวัลออสการ์ รับหน้าที่ผู้กำกับภาพภาพยนตร์ถ่ายทอดมุมมองของสงครามโดยใช้การเล่าเรื่องราวแบบเรียลไทม์ เป็นภาพยนตร์เล่าเรื่องแบบช็อตเดียวซึ่งจะทำให้ผู้ชมรู้สึกเสมือนอยู่ในสนามรบระหว่างสงครามโลกครั้งที่ 1 ทหารอังกฤษ ประกอบด้วย สคอฟิลด์ (จอร์จ แมคเคย์ จาก Captain Fantastic) และ เบลก (ดีน-ชาร์ลส์ แชปแมนจาก Game of Thrones) ได้รับมอบหมายให้ไปร่วมปฏิบัติการที่ดูเหมือนว่าอาจไม่มีทางสำเร็จ พวกเขาต้องข้ามเขตแดนของข้าศึก เพื่อส่งสารเพื่อให้หยุดการโจมตีทหารนับร้อย 1917 กำกับโดยแซม เมนเดส ที่เขียนบทร่วมกับคริสตี้ วิลสัน-แคร์น (จาก Showtime’s Penny Dreadful)ภาพยนตร์อำนวยการสร้างโดย แชม เมนเดส, พิปพา แฮร์ริส(ร่วมอำนวยการสร้าง Revolutionary Road บริหารงานสร้าง Away We Go) เจย์น-แอนน์ เทงเกรน (ร่วมอำนวยการสร้าง The Rhythm Sectionและ Skyfall) คัลลัม แมคดูกัล (บริหารงานสร้าง Mary Poppins Returns และ Skyfall) ไบรอัน โอลิเวอร์ (บริหารงานสร้าง Rocketman, Black Swan)!!!

Complete name : [MINI Super-HQ]_1917.2019.1080p.BrRip.DTS.x264.One2loadup.com.mkv
Format : Matroska
Format version : Version 4
File size : 3.85 GiB
Duration : 1 h 58 min
Overall bit rate : 4 636 kb/s
Movie name : [MINI Super-HQ]_1917.2019.1080p.BrRip.DTS.x264.One2loadup.com
Encoded date : UTC 2010-02-22 21:41:31
Writing application : mkvmerge v5.9.0 (‘On The Loose’) built on Dec 9 2012 15:37:01
Writing library : libebml v1.3.0 + libmatroska v1.4.0

Video
ID : 1
Format : AVC
Format/Info : Advanced Video Codec
Format profile : [email protected]
Format settings : CABAC / 4 Ref Frames
Format settings, CABAC : Yes
Format settings, ReFrames : 4 frames
Codec ID : V_MPEG4/ISO/AVC
Duration : 1 h 58 min
Bit rate : 3 380 kb/s
Width : 1 920 pixels
Height : 800 pixels
Display aspect ratio : 2.40:1
Frame rate mode : Constant
Frame rate : 23.976 (24000/1001) FPS
Color space : YUV
Chroma subsampling : 4:2:0
Bit depth : 8 bits
Scan type : Progressive
Bits/(Pixel*Frame) : 0.092
Stream size : 2.83 GiB (73%)
Title : [MINI Super-HQ]_1917.2019.1080p.BrRip.DTS.x264.One2loadup.com
Writing library : x264 core 146 r2538 121396c
Encoding settings : cabac=1 / ref=5 / deblock=1:-3:-3 / analyse=0x3:0x133 / me=tesa / subme=11 / psy=1 / psy_rd=1.00:0.15 / mixed_ref=1 / me_range=48 / chroma_me=1 / trellis=2 / 8x8dct=1 / cqm=0 / deadzone=21,11 / fast_pskip=1 / chroma_qp_offset=-3 / threads=54 / lookahead_threads=4 / sliced_threads=0 / nr=0 / decimate=1 / interlaced=0 / bluray_compat=1 / constrained_intra=0 / bframes=3 / b_pyramid=1 / b_adapt=2 / b_bias=0 / direct=3 / weightb=1 / open_gop=0 / weightp=1 / keyint=250 / keyint_min=1 / scenecut=40 / intra_refresh=0 / rc_lookahead=60 / rc=2pass / mbtree=1 / bitrate=3380 / ratetol=1.0 / qcomp=0.60 / qpmin=0 / qpmax=69 / qpstep=4 / cplxblur=20.0 / qblur=0.5 / ip_ratio=1.40 / aq=1:1.30
Language : English
Default : Yes
Forced : No

Audio #1
ID : 2
Format : AC-3
Format/Info : Audio Coding 3
Commercial name : Dolby Digital
Codec ID : A_AC3
Duration : 1 h 58 min
Bit rate mode : Constant
Bit rate : 384 kb/s
Channel(s) : 6 channels
Channel layout : L R C LFE Ls Rs
Sampling rate : 48.0 kHz
Frame rate : 31.250 FPS (1536 SPF)
Bit depth : 16 bits
Compression mode : Lossy
Stream size : 327 MiB (8%)
Title : Thai DVD Master
Language : Thai
Service kind : Complete Main
Default : Yes
Forced : Yes

Audio #2
ID : 3
Format : DTS
Format/Info : Digital Theater Systems
Codec ID : A_DTS
Duration : 1 h 58 min
Bit rate mode : Constant
Bit rate : 755 kb/s
Channel(s) : 6 channels
Channel layout : C L R Ls Rs LFE
Sampling rate : 48.0 kHz
Frame rate : 93.750 FPS (512 SPF)
Bit depth : 24 bits
Compression mode : Lossy
Stream size : 642 MiB (16%)
Title : English DTS
Language : English
Default : No
Forced : No

Text #1
ID : 4
Format : VobSub
Codec ID : S_VOBSUB
Codec ID/Info : Picture based subtitle format used on DVDs
Title : Thai 720p
Language : Thai
Default : No
Forced : No

Text #2
ID : 5
Format : VobSub
Codec ID : S_VOBSUB
Codec ID/Info : Picture based subtitle format used on DVDs
Title : Thai 1080p
Language : Thai
Default : Yes
Forced : Yes

Text #3
ID : 6
Format : VobSub
Codec ID : S_VOBSUB
Codec ID/Info : Picture based subtitle format used on DVDs
Title : Thai 1080p Yellow
Language : Thai
Default : No
Forced : No

Text #4
ID : 7
Format : VobSub
Codec ID : S_VOBSUB
Codec ID/Info : Picture based subtitle format used on DVDs
Title : Thai 1080p Out
Language : Thai
Default : No
Forced : No

Text #5
ID : 8
Format : VobSub
Codec ID : S_VOBSUB
Codec ID/Info : Picture based subtitle format used on DVDs
Title : Thai 1080p BIG
Language : Thai
Default : No
Forced : No

Text #6
ID : 9
Format : VobSub
Codec ID : S_VOBSUB
Codec ID/Info : Picture based subtitle format used on DVDs
Title : Thai 1080p Out [BIG]
Language : Thai
Default : No
Forced : No

Text #7
ID : 10
Format : PGS
Codec ID : S_HDMV/PGS
Codec ID/Info : Picture based subtitle format used on BDs/HD-DVDs
Title : Thai PGS
Language : Thai
Default : No
Forced : No

Text #8
ID : 11
Format : PGS
Codec ID : S_HDMV/PGS
Codec ID/Info : Picture based subtitle format used on BDs/HD-DVDs
Title : Thai PGS Out
Language : Thai
Default : No
Forced : No

Text #9
ID : 12
Format : PGS
Codec ID : S_HDMV/PGS
Codec ID/Info : Picture based subtitle format used on BDs/HD-DVDs
Title : Thai PGS Out
Language : Thai
Default : No
Forced : No

Text #10
ID : 13
Format : PGS
Codec ID : S_HDMV/PGS
Codec ID/Info : Picture based subtitle format used on BDs/HD-DVDs
Title : English
Language : English
Default : No
Forced : No

Menu
00:00:00.000 : en:1
00:05:00.342 : en:2
00:08:20.333 : en:3
00:13:27.556 : en:4
00:16:39.705 : en:5
00:23:34.493 : en:6
00:30:29.574 : en:7
00:35:36.546 : en:8
00:42:26.288 : en:9
00:51:35.003 : en:10
00:56:37.220 : en:11
01:02:29.988 : en:12
01:06:34.524 : en:13
01:12:05.228 : en:14
01:19:46.355 : en:15
01:28:48.730 : en:16
01:33:44.357 : en:17
01:38:12.500 : en:18
01:41:44.586 : en:19
01:49:28.216 : en:20

DOWNLOAD


PART01 |||| PART02 |||| PART03 |||| PART04

PART01 |||| PART02 |||| PART03 |||| PART04

PART01 |||| PART02 |||| PART03 |||| PART04

PART01 |||| PART02 |||| PART03 |||| PART04

PART01 |||| PART02 |||| PART03 |||| PART04



แจ้งหนังเสีย หรือโหลดไม่ได้ ทั้งลิ้งฟรีและ vip สามารถกดที่รูปด้านบนนี้ได้เลย

: Disable Comments
%d bloggers like this: