[MINI Super-HQ] Wreck-It Ralph (2012) ราล์ฟ วายร้ายหัวใจฮีโร่ [1080p] [พากย์ไทย 5.1 + เสียงอังกฤษ 5.1] [บรรยายไทย + อังกฤษ] [เสียงไทย + ซับไทย] [PANDAFILE]

0

โหลดหนัง Wreck-It Ralph (2012) ราล์ฟ วายร้ายหัวใจฮีโร่

Wreck-It Ralph | November 2, 2012 (United States) Summary: A video game villain wants to be a hero and sets out to fulfill his dream, but his quest brings havoc to the whole arcade where he lives.
Countries: United StatesLanguages: English

เรื่องย่อ Wreck-It Ralph (2012) ราล์ฟ วายร้ายหัวใจฮีโร่

ราล์ฟ ฝันอยากจะเป็นที่รักใคร่เหมือนอย่างพระเอกในเกมของเขา ปัญหาคือ ไม่มีใครชอบตัวร้าย พวกเขาชอบแต่พระเอก และเมื่อเกมยิงมุมมองบุคคลที่หนึ่งที่ทันสมัยที่สุดได้มาถึงพร้อมกับตัวละคร ผู้แข็งแกร่ง สิบเอกคาลฮูน ราล์ฟเห็นลู่ทางที่จะทำให้เขาได้เป็นฮีโร่และมีความสุขได้ เขาจึงหนีจากเกมของตัวเองเข้าไปในเกมใหม่นี้ ด้วยแผนการสุดเรียบง่าย นั่นก็คือการเอาชนะเกมนี้ทำลายทุกสิ่งที่ขวางหน้า และปลดปล่อยศัตรูสุดร้ายกาจที่ออกมาคุกคามเกมตู้อื่นๆ โดยไม่ตั้งใจ แล้วความหวังเดียวของราล์ฟละ? วาเนโลปี้ วอน ชวีทซ์ บั๊คจอมป่วนจากเกมแข่งรถโกคาร์ทเคลือบลูกกวาด เธออาจจะเป็นคนสอนราล์ฟถึงความหมายของการเป็นคนดี แต่เขาจะรู้ตัวทันหรือไม่ ว่าเขาดีพอที่จะเป็นฮีโร่ ก่อนที่ชะตาชีวิตของเกมตู้ทั้งหมดที่นั่นจะ “จบเกม”

Complete name : [MINI Super-HQ]_Wreck.It.Ralph.2012.1080p.BluRay.AC3.x264.One2loadup.com.mkv
Format : Matroska
Format version : Version 4
File size : 4.56 GiB
Duration : 1 h 41 min
Overall bit rate : 6 445 kb/s
Movie name : [MINI Super-HQ]_Wreck.It.Ralph.2012.1080p.BluRay.AC3.x264.One2loadup.com
Encoded date : UTC 2010-02-22 21:41:31
Writing application : mkvmerge v5.9.0 (‘On The Loose’) built on Dec 9 2012 15:37:01
Writing library : libebml v1.3.0 + libmatroska v1.4.0

Video
ID : 1
Format : AVC
Format/Info : Advanced Video Codec
Format profile : [email protected]
Format settings : CABAC / 5 Ref Frames
Format settings, CABAC : Yes
Format settings, ReFrames : 5 frames
Codec ID : V_MPEG4/ISO/AVC
Duration : 1 h 41 min
Bit rate : 5 096 kb/s
Width : 1 920 pixels
Height : 800 pixels
Display aspect ratio : 2.40:1
Frame rate mode : Constant
Frame rate : 23.976 FPS
Color space : YUV
Chroma subsampling : 4:2:0
Bit depth : 8 bits
Scan type : Progressive
Bits/(Pixel*Frame) : 0.138
Stream size : 3.56 GiB (78%)
Title : [MINI Super-HQ]_Wreck.It.Ralph.2012.1080p.BluRay.AC3.x264.One2loadup.com
Writing library : x264 core 130 r2273 b3065e6
Encoding settings : cabac=1 / ref=5 / deblock=1:0:0 / analyse=0x3:0x133 / me=umh / subme=10 / psy=1 / psy_rd=1.00:0.00 / mixed_ref=1 / me_range=32 / chroma_me=1 / trellis=2 / 8x8dct=1 / cqm=0 / deadzone=21,11 / fast_pskip=0 / chroma_qp_offset=-2 / threads=12 / lookahead_threads=1 / sliced_threads=0 / nr=0 / decimate=0 / interlaced=0 / bluray_compat=0 / constrained_intra=0 / bframes=5 / b_pyramid=2 / b_adapt=2 / b_bias=0 / direct=3 / weightb=1 / open_gop=0 / weightp=2 / keyint=240 / keyint_min=23 / scenecut=40 / intra_refresh=0 / rc_lookahead=120 / rc=2pass / mbtree=1 / bitrate=5096 / ratetol=1.0 / qcomp=0.60 / qpmin=0 / qpmax=69 / qpstep=4 / cplxblur=20.0 / qblur=0.5 / ip_ratio=1.40 / aq=1:0.70
Language : English
Default : Yes
Forced : No

Audio #1
ID : 2
Format : AC-3
Format/Info : Audio Coding 3
Commercial name : Dolby Digital
Codec ID : A_AC3
Duration : 1 h 41 min
Bit rate mode : Constant
Bit rate : 640 kb/s
Channel(s) : 6 channels
Channel layout : L R C LFE Ls Rs
Sampling rate : 48.0 kHz
Frame rate : 31.250 FPS (1536 SPF)
Bit depth : 16 bits
Compression mode : Lossy
Stream size : 463 MiB (10%)
Language : English
Service kind : Complete Main
Default : Yes
Forced : Yes

Audio #2
ID : 3
Format : AC-3
Format/Info : Audio Coding 3
Commercial name : Dolby Digital
Codec ID : A_AC3
Duration : 1 h 41 min
Bit rate mode : Constant
Bit rate : 640 kb/s
Channel(s) : 6 channels
Channel layout : L R C LFE Ls Rs
Sampling rate : 48.0 kHz
Frame rate : 31.250 FPS (1536 SPF)
Bit depth : 16 bits
Compression mode : Lossy
Stream size : 463 MiB (10%)
Language : Thai
Service kind : Complete Main
Default : No
Forced : No

Text #1
ID : 4
Format : VobSub
Codec ID : S_VOBSUB
Codec ID/Info : Picture based subtitle format used on DVDs
Language : Thai
Default : Yes
Forced : Yes

Text #2
ID : 5
Format : VobSub
Codec ID : S_VOBSUB
Codec ID/Info : Picture based subtitle format used on DVDs
Language : Thai
Default : No
Forced : No

Text #3
ID : 6
Format : PGS
Codec ID : S_HDMV/PGS
Codec ID/Info : Picture based subtitle format used on BDs/HD-DVDs
Language : Thai
Default : No
Forced : No

Text #4
ID : 7
Format : UTF-8
Codec ID : S_TEXT/UTF8
Codec ID/Info : UTF-8 Plain Text
Language : English
Default : No
Forced : No

Menu
00:00:00.000 : :Chapter 01
00:07:12.139 : :Chapter 02
00:16:34.910 : :Chapter 03
00:27:07.500 : :Chapter 04
00:37:25.951 : :Chapter 05
00:44:46.683 : :Chapter 06
00:48:45.130 : :Chapter 07
00:51:36.009 : :Chapter 08
00:58:56.032 : :Chapter 09
01:09:07.893 : :Chapter 10
01:13:39.623 : :Chapter 11
01:15:56.801 : :Chapter 12
01:18:52.977 : :Chapter 13
01:21:53.741 : :Chapter 14
01:27:25.364 : :Chapter 15
01:33:10.542 : :Chapter 16
01:41:13.274 : :Chapter 17

DOWNLOAD


PART01 |||| PART02 |||| PART03 |||| PART04 |||| PART05

PART01 |||| PART02 |||| PART03 |||| PART04 |||| PART05

PART01 |||| PART02 |||| PART03 |||| PART04 |||| PART05

PART01 |||| PART02 |||| PART03 |||| PART04 |||| PART05

PART01 |||| PART02 |||| PART03 |||| PART04 |||| PART05


Leave A Reply

อีเมล์ของคุณจะไม่แสดงให้เห็น Your email address will not be published.

%d bloggers like this: