[MINI-HD] What You Did Last Summer (1997) ซัมเมอร์สยองต้องหวีด ภาค 1 [720P] [พากย์ไทย 5.1 + เสียงอังกฤษ 5.1] [บรรยายไทย + อังกฤษ] [เสียงไทย + ซับไทย] [PANDAFILE]

0

โหลดหนัง What You Did Last Summer (1997) ซัมเมอร์สยองต้องหวีด ภาค 1

Ich weiß, was du letzten Sommer getan hast (1997) 1h 41min | Horror, Mystery | 19 March 1998 (Germany) Summary: Four young friends bound by a tragic accident are reunited when they find themselves being stalked by a hook-wielding maniac in their small seaside town.
Countries: USALanguages: English

เรื่องย่อ What You Did Last Summer (1997) ซัมเมอร์สยองต้องหวีด ภาค 1

ในช่วงวันหยุดหน้าร้อนเดือนกรกฎาคม กลุ่มเพื่อนซี๊ 4 คน อันได้แก่ จูลี่ เรย์ เฮเลน และ แบรี่ ได้จัดงานฉลองจบการศึกษา ในระหว่างทางกลับบ้าน พวกเขาทั้งสี่คนได้ขับรถชนใครบางคนที่กำลังข้ามถนนอยู่แต่ด้วยความกังวลเรื่องอนาคตทำให้ทั้งหมดร่วมกันเก็บ ความลับนี้ไว้ไม่บอกใคร แล้วนำศพคนตายนี้ไปทิ้งใกล้ ๆ ทะเลแทน 1 ปีต่อมา จูลี่ ได้กลับบ้านช่วงปิดภาคเรียนมหาวิทยาลัย เธอได้รับจดหมายที่เขียนข้อความว่าฉันรู้ว่าคุณทำอะไรไว้ในหน้าร้อนปีก่อนนั่นทำให้เธอเริ่มประสาทเสีย แล้วจากนั้นการตามล่าหนุ่มสาวเหล่านี้ จากบุคคลปริศนาจึงเกิดขึ้น พวกเขาต้องเผชิญหน้ากับความตายอย่างเลี่ยงไม่ได้…

Complete name : [MINI-HD]_I.Know.What.You.Did.Last.Summer.1997.720p.BluRay.AC3.x264.One2loadup.com.mkv
Format : Matroska
Format version : Version 4
File size : 4.73 GiB
Duration : 1 h 40 min
Overall bit rate : 6 707 kb/s
Movie name : [MINI-HD]_I.Know.What.You.Did.Last.Summer.1997.720p.BluRay.AC3.x264.One2loadup.com
Encoded date : UTC 2017-03-02 05:10:42
Writing application : mkvmerge v9.8.0 (‘Kuglblids’) 64bit
Writing library : libebml v1.3.4 + libmatroska v1.4.5

Video
ID : 1
Format : AVC
Format/Info : Advanced Video Codec
Format profile : [email protected]
Format settings : CABAC / 5 Ref Frames
Format settings, CABAC : Yes
Format settings, ReFrames : 5 frames
Codec ID : V_MPEG4/ISO/AVC
Duration : 1 h 40 min
Bit rate : 5 563 kb/s
Width : 1 280 pixels
Height : 528 pixels
Display aspect ratio : 2.40:1
Frame rate mode : Constant
Frame rate : 23.976 FPS
Color space : YUV
Chroma subsampling : 4:2:0
Bit depth : 8 bits
Scan type : Progressive
Bits/(Pixel*Frame) : 0.343
Stream size : 3.92 GiB (83%)
Title : [MINI-HD]_I.Know.What.You.Did.Last.Summer.1997.720p.BluRay.AC3.x264.One2loadup.com
Writing library : x264 core 60 r901M 58d7d06
Encoding settings : cabac=1 / ref=5 / deblock=1:-1:-1 / analyse=0x3:0x133 / me=umh / subme=6 / rdcmp=psy / brdo=1 / mixed_ref=1 / me_range=16 / chroma_me=1 / trellis=1 / 8x8dct=1 / cqm=1 / deadzone=21,11 / chroma_qp_offset=0 / threads=8 / nr=0 / decimate=1 / mbaff=0 / bframes=3 / b_pyramid=1 / b_adapt=1 / b_bias=0 / direct=3 / wpredb=1 / bime=1 / keyint=240 / keyint_min=24 / scenecut=40(pre) / rc=2pass / bitrate=5563 / ratetol=1.0 / rceq=’blurCplx^(1-qComp)’ / qcomp=1.00 / qpmin=10 / qpmax=51 / qpstep=4 / cplxblur=20.0 / qblur=0.5 / ip_ratio=1.40 / pb_ratio=1.30 / aq=2:1.00
Language : English
Default : Yes
Forced : No

Audio #1
ID : 2
Format : AC-3
Format/Info : Audio Coding 3
Commercial name : Dolby Digital
Codec ID : A_AC3
Duration : 1 h 39 min
Bit rate mode : Constant
Bit rate : 448 kb/s
Channel(s) : 6 channels
Channel layout : L R C LFE Ls Rs
Sampling rate : 48.0 kHz
Frame rate : 31.250 FPS (1536 SPF)
Bit depth : 16 bits
Compression mode : Lossy
Delay relative to video : 49 s 500 ms
Stream size : 320 MiB (7%)
Language : Thai
Service kind : Complete Main
Default : Yes
Forced : Yes

Audio #2
ID : 3
Format : AC-3
Format/Info : Audio Coding 3
Commercial name : Dolby Digital
Codec ID : A_AC3
Duration : 1 h 40 min
Bit rate mode : Constant
Bit rate : 640 kb/s
Channel(s) : 6 channels
Channel layout : L R C LFE Ls Rs
Sampling rate : 48.0 kHz
Frame rate : 31.250 FPS (1536 SPF)
Bit depth : 16 bits
Compression mode : Lossy
Stream size : 462 MiB (10%)
Language : English
Service kind : Complete Main
Default : No
Forced : No

Text #1
ID : 4
Format : VobSub
Muxing mode : zlib
Codec ID : S_VOBSUB
Codec ID/Info : Picture based subtitle format used on DVDs
Duration : 1 h 31 min
Bit rate : 1 486 b/s
Count of elements : 826
Stream size : 998 KiB (0%)
Title : THA 480p DVD Master
Language : Thai
Default : No
Forced : No

Text #2
ID : 5
Format : VobSub
Muxing mode : zlib
Codec ID : S_VOBSUB
Codec ID/Info : Picture based subtitle format used on DVDs
Duration : 1 h 32 min
Bit rate : 2 368 b/s
Count of elements : 826
Stream size : 1.57 MiB (0%)
Title : THA 720p AS
Language : Thai
Default : No
Forced : No

Text #3
ID : 6
Format : VobSub
Muxing mode : zlib
Codec ID : S_VOBSUB
Codec ID/Info : Picture based subtitle format used on DVDs
Duration : 1 h 32 min
Bit rate : 3 854 b/s
Count of elements : 826
Stream size : 2.55 MiB (0%)
Title : THA 1080p AS Yellow
Language : Thai
Default : No
Forced : No

Text #4
ID : 7
Format : VobSub
Muxing mode : zlib
Codec ID : S_VOBSUB
Codec ID/Info : Picture based subtitle format used on DVDs
Duration : 1 h 32 min
Bit rate : 3 860 b/s
Count of elements : 826
Stream size : 2.55 MiB (0%)
Title : THA 1080p AS
Language : Thai
Default : No
Forced : No

Text #5
ID : 8
Format : VobSub
Muxing mode : zlib
Codec ID : S_VOBSUB
Codec ID/Info : Picture based subtitle format used on DVDs
Duration : 1 h 32 min
Bit rate : 3 540 b/s
Count of elements : 826
Stream size : 2.34 MiB (0%)
Title : THA 1080p TA
Language : Thai
Default : Yes
Forced : Yes

Text #6
ID : 9
Format : PGS
Muxing mode : zlib
Codec ID : S_HDMV/PGS
Codec ID/Info : Picture based subtitle format used on BDs/HD-DVDs
Duration : 1 h 32 min
Bit rate : 12.7 kb/s
Count of elements : 1652
Stream size : 8.42 MiB (0%)
Title : THA PGS AS
Language : Thai
Default : No
Forced : No

Text #7
ID : 10
Format : PGS
Muxing mode : zlib
Codec ID : S_HDMV/PGS
Codec ID/Info : Picture based subtitle format used on BDs/HD-DVDs
Duration : 1 h 32 min
Bit rate : 11.9 kb/s
Count of elements : 1652
Stream size : 7.84 MiB (0%)
Title : THA PGS TA
Language : Thai
Default : No
Forced : No

Text #8
ID : 11
Format : PGS
Muxing mode : zlib
Codec ID : S_HDMV/PGS
Codec ID/Info : Picture based subtitle format used on BDs/HD-DVDs
Duration : 1 h 32 min
Bit rate : 12.7 kb/s
Count of elements : 1652
Stream size : 8.42 MiB (0%)
Title : THA PGS AS Out
Language : Thai
Default : No
Forced : No

Text #9
ID : 12
Format : PGS
Muxing mode : zlib
Codec ID : S_HDMV/PGS
Codec ID/Info : Picture based subtitle format used on BDs/HD-DVDs
Duration : 1 h 32 min
Bit rate : 11.9 kb/s
Count of elements : 1652
Stream size : 7.84 MiB (0%)
Title : THA PGS TA Out
Language : Thai
Default : No
Forced : No

Text #10
ID : 13
Format : UTF-8
Codec ID : S_TEXT/UTF8
Codec ID/Info : UTF-8 Plain Text
Duration : 1 h 33 min
Bit rate : 32 b/s
Count of elements : 557
Stream size : 22.3 KiB (0%)
Title : ENG SRT
Language : English
Default : No
Forced : No

DOWNLOAD


PART01 |||| PART02 |||| PART03 |||| PART04 |||| PART05

PART01 |||| PART02 |||| PART03 |||| PART04 |||| PART05

PART01 |||| PART02 |||| PART03 |||| PART04 |||| PART05

PART01 |||| PART02 |||| PART03 |||| PART04 |||| PART05

PART01 |||| PART02 |||| PART03 |||| PART04 |||| PART05


Disable Comments
%d bloggers like this: