[MINI-HD] Underworld (2003) สงครามโค่นพันธุ์อสูร ภาค 1 [720p] [พากย์ไทย 5.1 + เสียงอังกฤษ 5.1] [บรรยายไทย + อังกฤษ] [เสียงไทย + ซับไทย] [Modified] [PANDAFILE]

4

โหลดหนัง Underworld (2003) สงครามโค่นพันธุ์อสูร ภาค 1

Underworld | September 19, 2003 (United States) Summary: Selene, a vampire warrior, is entrenched in a conflict between vampires and werewolves, while falling in love with Michael, a human who is sought by werewolves for unknown reasons.
Countries: United States, United Kingdom, Germany, HungaryLanguages: English

เรื่องย่อ Underworld (2003) สงครามโค่นพันธุ์อสูร

สองเผ่าพันธุ์อมนุษย์ ดำรงชีวิตซุกซ่อนปะปนอยู่ในสังคมโลก มานานนับศตวรรษ ผีดูดเลือดหรือแวมไพร์ ผู้สูงศักดิ์และสง่างาม สร้างอาณาจักรอันฟุ้งเฟ้อ ด้วยคมเขี้ยวจากสันดานฉ้อฉล โดยมีศัตรูตัวฉกาจ คือเหล่ามนุษย์หมาป่า หรือไลคันส์ ที่เต็มไปด้วยสัญชาติญาณดิบเถื่อน และดุร้ายหยาบคาย พลังชีวิตอันเป็นอมตะของทั้งสองฝ่าย ได้บังคับให้สองเผ่าพันธุ์ต้องก่อสงคราม เพื่อแก่งแย่งความเป็นหนึ่งอย่างดุเดือด สำหรับมนุษย์ปุถุชน กลับคิดว่าตำนานการนองเลือดดังกล่าว เป็นแค่เรื่องเล่าเพ้อเจ้อ แต่สำหรับทั้งแวมไพร์และไลคันส์แล้ว แต่ละเผ่าพันธุ์ต่างเป็นศัตรูตัวร้ายของกันและกัน ชั่วนิรันดร์…

ท่ามกลางการต่อสู้ที่ยังคงดำเนินต่อไปไม่สิ้นสุดนี้ หนึ่งนักรบแวมไพร์สาว เซลีน่า (เคท เบคินเซล) ได้เปิดโปงแผนชั่วของเหล่ามนุษย์หมาป่า ที่วางแผนลักพาตัวหมอหนุ่ม ผู้ได้รับการยกย่องว่าเป็นอัจฉริยะ เธอสะกดรอยตาม ไมเคิล (สก็อตต์ สปีดแมน) จนมาถึงโลกมนุษย์ โดยไม่คาดคิด เธอกลับมีใจผูกพันกับหมาป่าหนุ่ม และกลายเป็นว่าเธอตกหลุมพรางของศัตรูจนเกือบเอาตัวไม ่รอด เธอจึงต้องไล่ล่าฝ่ายอริ และขัดขวางแผนร้ายทุกวิธีทางเป็นการแก้เผ็ด

ในขณะที่เธอพยายามต่อสู้เพื่อปกป้องไมเคิล และจัดการกับแผนการของไลคันส์นั้น เซลิน่าได้เผชิญกับความลับยิ่งใหญ่อีกครั้ง เกี่ยวกับการสร้างอมนุษย์กินเนื้อสายพันธุ์ใหม่ ที่ผสมผสานความแข็งแกร่งของผีดูดเลือด เข้ากับความทรหดของมนุษย์หมาป่า โดยตัดทอนจุดด้อยของทั้งสองฝ่ายออก เซลิน่าตระหนักดีว่า หากการทดลองดังกล่าวประสบความสำเร็จสงครามก็อาจจะลุก ลาม และนำสู่โลกไปสู่กาลวิบัติ!!

Complete name : [MINI-HD]_Underworld.Theatrical.Version.2003.720p.AC3.x264.One2loadup.com.mkv
Format : Matroska
Format version : Version 2
File size : 3.98 GiB
Duration : 2 h 1 min
Overall bit rate mode : Variable
Overall bit rate : 4 705 kb/s
Encoded date : UTC 2012-07-26 00:03:41
Writing application : mkvmerge v3.4.0 (‘Rapunzel’) built on May 15 2010 09:38:20
Writing library : libebml v0.8.0 + libmatroska v0.9.0

Video
ID : 1
Format : AVC
Format/Info : Advanced Video Codec
Format profile : [email protected]
Format settings, CABAC : Yes
Format settings, RefFrames : 16 frames
Codec ID : V_MPEG4/ISO/AVC
Duration : 2 h 1 min
Bit rate mode : Variable
Bit rate : 3 925 kb/s
Maximum bit rate : 300 Mb/s
Width : 1 280 pixels
Height : 544 pixels
Display aspect ratio : 2.35:1
Frame rate mode : Constant
Frame rate : 23.976 (24000/1001) FPS
Color space : YUV
Chroma subsampling : 4:2:0
Bit depth : 8 bits
Scan type : Progressive
Bits/(Pixel*Frame) : 0.235
Stream size : 3.25 GiB (82%)
Title : [MINI-HD]_Underworld.Theatrical.Version.2003.720p.AC3.x264.One2loadup.com
Writing library : x264 core 125 r2200 999b753
Encoding settings : cabac=1 / ref=16 / deblock=1:0:0 / analyse=0x3:0x133 / me=umh / subme=10 / psy=1 / psy_rd=1.00:0.00 / mixed_ref=1 / me_range=24 / chroma_me=1 / trellis=2 / 8x8dct=1 / cqm=0 / deadzone=21,11 / fast_pskip=1 / chroma_qp_offset=-2 / threads=9 / lookahead_threads=1 / sliced_threads=0 / nr=0 / decimate=1 / interlaced=0 / bluray_compat=0 / constrained_intra=0 / bframes=8 / b_pyramid=0 / b_adapt=2 / b_bias=0 / direct=3 / weightb=1 / open_gop=0 / weightp=2 / keyint=240 / keyint_min=24 / scenecut=40 / intra_refresh=0 / rc_lookahead=60 / rc=2pass / mbtree=1 / bitrate=3925 / ratetol=1.0 / qcomp=0.60 / qpmin=0 / qpmax=69 / qpstep=4 / cplxblur=20.0 / qblur=0.5 / vbv_maxrate=300000 / vbv_bufsize=300000 / nal_hrd=vbr / ip_ratio=1.40 / aq=1:1.00
Language : English
Default : Yes
Forced : No

Audio #1
ID : 2
Format : AC-3
Format/Info : Audio Coding 3
Format settings, Endianness : Big
Codec ID : A_AC3
Duration : 2 h 1 min
Bit rate mode : Constant
Bit rate : 384 kb/s
Channel(s) : 6 channels
Channel positions : Front: L C R, Side: L R, LFE
Sampling rate : 48.0 kHz
Frame rate : 31.250 FPS (1536 SPF)
Bit depth : 16 bits
Compression mode : Lossy
Stream size : 333 MiB (8%)
Title : ac3 6ch master
Language : Thai
Service kind : Complete Main
Default : Yes
Forced : No

Audio #2
ID : 3
Format : AC-3
Format/Info : Audio Coding 3
Format settings, Endianness : Big
Codec ID : A_AC3
Duration : 2 h 1 min
Bit rate mode : Constant
Bit rate : 384 kb/s
Channel(s) : 6 channels
Channel positions : Front: L C R, Side: L R, LFE
Sampling rate : 48.0 kHz
Frame rate : 31.250 FPS (1536 SPF)
Bit depth : 16 bits
Compression mode : Lossy
Stream size : 333 MiB (8%)
Title : ac3 6ch master
Language : English
Service kind : Complete Main
Default : No
Forced : No

Text #1
ID : 4
Format : VobSub
Muxing mode : zlib
Codec ID : S_VOBSUB
Codec ID/Info : Picture based subtitle format used on DVDs
Title : br master
Language : Thai
Default : No
Forced : No

Text #2
ID : 5
Format : VobSub
Muxing mode : zlib
Codec ID : S_VOBSUB
Codec ID/Info : Picture based subtitle format used on DVDs
Title : br master
Language : Thai
Default : No
Forced : No

Text #3
ID : 6
Format : VobSub
Muxing mode : zlib
Codec ID : S_VOBSUB
Codec ID/Info : Picture based subtitle format used on DVDs
Title : br master
Language : Thai
Default : No
Forced : No

Text #4
ID : 7
Format : VobSub
Muxing mode : zlib
Codec ID : S_VOBSUB
Codec ID/Info : Picture based subtitle format used on DVDs
Title : br master
Language : Thai
Default : No
Forced : No

Text #5
ID : 8
Format : VobSub
Muxing mode : zlib
Codec ID : S_VOBSUB
Codec ID/Info : Picture based subtitle format used on DVDs
Title : br-master
Language : English
Default : No
Forced : No

 

DOWNLOAD


PART01 |||| PART02 |||| PART03 |||| PART04 |||| PART05

PART01 |||| PART02 |||| PART03 |||| PART04 |||| PART05

PART01 |||| PART02 |||| PART03 |||| PART04 |||| PART05

PART01 |||| PART02 |||| PART03 |||| PART04 |||| PART05

PART01 |||| PART02 |||| PART03 |||| PART04 |||| PART05


4 Comments
  1. Orca
    Orca says

    ภาค 1 – 5 โหลดไม่ได้สักอันเลยครับ ช่วยแก้หน่อยนะครับ

    1. Admin
      Admin says

      การแก้ไขหลายภาค ขอข้ามไปก่อนเนื่องจาก การแก้หนัง = การอัพหนังใหม่จะไม่มีเกิดขึ้นแน่นอน เพราะ การแก้หนังใช้เวลา เท่ากับ การอัพหนังใหม่ ฉนั้นเลยบอกไว้ก่อนว่าการแก้หนังจะช้าลง หนังใหม่ที่รออัพจะไม่ได้อัพสักที นะฮ๊ะ ต้องขออภัยด้วย

      1. Orca
        Orca says

        แก้ช้าไม่เป็นไรครับ Admin รอได้ครับ สู้ๆครับ ^^

    2. Admin
      Admin says

      แก้ไขทั้งหมดเรียบร้อยฮ๊ะ

Leave A Reply

อีเมล์ของคุณจะไม่แสดงให้เห็น Your email address will not be published.

%d bloggers like this: