[MINI-HD] Underdog (2007) อันเดอร์ด็อก ยอดสุนัขพิทักษ์โลก [720p] [พากย์ไทย 5.1 + เสียงอังกฤษ DTS] [บรรยายไทย + อังกฤษ] [เสียงไทย + ซับไทย] [PANDAFILE]

0

Underdog (2007)

โหลดหนัง Underdog (2007) อันเดอร์ด็อก ยอดสุนัขพิทักษ์โลก

Underdog - Unbesiegt weil er fliegt (2007) 1h 24min | Action, Adventure, Comedy | 31 January 2008 (Germany) Summary: A Beagle must use his newly-bestowed superpowers to defend Capitol City from mad scientist Simon Barsinister.
Countries: USALanguages: English

เรื่องย่อ Underdog (2007) อันเดอร์ด็อก ยอดสุนัขพิทักษ์โลก

หลังจากอุบัติเหตุในแล็บไฮเทคของนักวิทยาศาสตร์สติเฟื่อง จู่ๆ สุนัขบีเกิลธรรมดาๆ ก็พบว่าตัวเองมีพลังพิเศษขึ้นมาซะอย่างงั้น แถมยังมีความสามารถในการเปลี่ยนการเห่าให้กลายเป็นคำพูดจริงๆ ได้อีกด้วยบัดนี้ด้วยชุดซูเปอร์ฮีโร่เตะตา วีรบุรุษในผ้าคลุมผู้เรียกตัวเองว่าอันเดอร์ด็อก สาบานที่จะปกป้องประชากรของแคปิตอลซิตีที่ถูกรังแก และเมื่อแผนการร้ายโดย บาร์ซินิสเตอร์ และลูกสมุนตัวยักษ์ของเขา กำลังจะทำลายแคปิตอลซิตี มีเพียงอันเดอร์ด็อกเท่านั้นที่จะช่วยทุกคนได้ …

Complete name : [MINI-HD]_Underdog.2007.720p.BrRip.DTS.x264.One2loadup.com.mkv
Format : Matroska
Format version : Version 4
File size : 4.87 GiB
Duration : 1 h 21 min
Overall bit rate : 8 503 kb/s
Movie name : [MINI-HD]_Underdog.2007.720p.BrRip.DTS.x264.One2loadup.com
Encoded date : UTC 2018-01-30 11:56:03
Writing application : mkvmerge v18.0.0 (‘Apricity’) 64-bit
Writing library : libebml v1.3.5 + libmatroska v1.4.8

Video
ID : 1
Format : AVC
Format/Info : Advanced Video Codec
Format profile : [email protected]
Format settings : CABAC / 8 Ref Frames
Format settings, CABAC : Yes
Format settings, ReFrames : 8 frames
Codec ID : V_MPEG4/ISO/AVC
Duration : 1 h 21 min
Bit rate : 6 131 kb/s
Width : 1 280 pixels
Height : 532 pixels
Display aspect ratio : 2.40:1
Frame rate mode : Constant
Frame rate : 23.976 (24000/1001) FPS
Color space : YUV
Chroma subsampling : 4:2:0
Bit depth : 8 bits
Scan type : Progressive
Bits/(Pixel*Frame) : 0.376
Stream size : 3.51 GiB (72%)
Title : [MINI-HD]_Underdog.2007.720p.BrRip.DTS.x264.One2loadup.com
Writing library : x264 core 58 svn-736M
Encoding settings : cabac=1 / ref=8 / deblock=0:0:0 / analyse=0x3:0x113 / me=umh / subme=7 / brdo=0 / mixed_ref=1 / me_range=24 / chroma_me=1 / trellis=2 / 8x8dct=1 / cqm=2 / deadzone=21,11 / chroma_qp_offset=0 / threads=6 / nr=0 / decimate=1 / mbaff=0 / bframes=5 / b_pyramid=0 / b_adapt=0 / b_bias=0 / direct=3 / wpredb=0 / bime=0 / keyint=250 / keyint_min=25 / scenecut=40(pre) / rc=2pass / bitrate=6131 / ratetol=1.0 / rceq=’blurCplx^(1-qComp)’ / qcomp=1.00 / qpmin=10 / qpmax=51 / qpstep=4 / cplxblur=20.0 / qblur=0.5 / ip_ratio=1.40 / pb_ratio=1.30 / aq=1:0.5:13.0
Language : English
Default : Yes
Forced : No

Audio #1
ID : 2
Format : DTS
Format/Info : Digital Theater Systems
Codec ID : A_DTS
Duration : 1 h 21 min
Bit rate mode : Constant
Bit rate : 1 510 kb/s
Channel(s) : 6 channels
Channel layout : C L R Ls Rs LFE
Sampling rate : 48.0 kHz
Frame rate : 93.750 FPS (512 SPF)
Bit depth : 24 bits
Compression mode : Lossy
Stream size : 885 MiB (18%)
Language : English
Default : No
Forced : No

Audio #2
ID : 3
Format : AC-3
Format/Info : Audio Coding 3
Commercial name : Dolby Digital
Codec ID : A_AC3
Duration : 1 h 21 min
Bit rate mode : Constant
Bit rate : 384 kb/s
Channel(s) : 6 channels
Channel layout : L R C LFE Ls Rs
Sampling rate : 48.0 kHz
Frame rate : 31.250 FPS (1536 SPF)
Bit depth : 16 bits
Compression mode : Lossy
Stream size : 225 MiB (5%)
Title : Master DVD
Language : Thai
Service kind : Complete Main
Default : Yes
Forced : No

Audio #3
ID : 4
Format : AC-3
Format/Info : Audio Coding 3
Commercial name : Dolby Digital
Codec ID : A_AC3
Duration : 1 h 21 min
Bit rate mode : Constant
Bit rate : 384 kb/s
Channel(s) : 6 channels
Channel layout : L R C LFE Ls Rs
Sampling rate : 48.0 kHz
Frame rate : 31.250 FPS (1536 SPF)
Bit depth : 16 bits
Compression mode : Lossy
Stream size : 225 MiB (5%)
Title : Eng
Language : English
Service kind : Complete Main
Default : No
Forced : No

Text #1
ID : 5
Format : VobSub
Muxing mode : zlib
Codec ID : S_VOBSUB
Codec ID/Info : Picture based subtitle format used on DVDs
Duration : 1 h 15 min
Bit rate : 4 649 b/s
Count of elements : 1095
Stream size : 2.51 MiB (0%)
Title : Master DVD
Language : Thai
Default : Yes
Forced : No

Text #2
ID : 6
Format : VobSub
Muxing mode : zlib
Codec ID : S_VOBSUB
Codec ID/Info : Picture based subtitle format used on DVDs
Duration : 1 h 15 min
Bit rate : 12.8 kb/s
Count of elements : 1189
Stream size : 6.90 MiB (0%)
Title : Tahoma
Language : Thai
Default : No
Forced : No

Text #3
ID : 7
Format : PGS
Muxing mode : zlib
Codec ID : S_HDMV/PGS
Codec ID/Info : Picture based subtitle format used on BDs/HD-DVDs
Duration : 1 h 15 min
Bit rate : 57.1 kb/s
Count of elements : 2378
Stream size : 30.8 MiB (1%)
Title : Tahoma
Language : Thai
Default : No
Forced : No

Text #4
ID : 8
Format : UTF-8
Codec ID : S_TEXT/UTF8
Codec ID/Info : UTF-8 Plain Text
Duration : 1 h 15 min
Bit rate : 210 b/s
Count of elements : 1189
Stream size : 117 KiB (0%)
Title : White
Language : Thai
Default : No
Forced : No

Text #5
ID : 9
Format : VobSub
Muxing mode : zlib
Codec ID : S_VOBSUB
Codec ID/Info : Picture based subtitle format used on DVDs
Duration : 1 h 15 min
Bit rate : 13.9 kb/s
Count of elements : 1189
Stream size : 7.48 MiB (0%)
Title : SegoeUI
Language : Thai
Default : No
Forced : No

Text #6
ID : 10
Format : PGS
Muxing mode : zlib
Codec ID : S_HDMV/PGS
Codec ID/Info : Picture based subtitle format used on BDs/HD-DVDs
Duration : 1 h 15 min
Bit rate : 62.0 kb/s
Count of elements : 2378
Stream size : 33.5 MiB (1%)
Title : SegoeUI
Language : Thai
Default : No
Forced : No

Text #7
ID : 11
Format : UTF-8
Codec ID : S_TEXT/UTF8
Codec ID/Info : UTF-8 Plain Text
Duration : 1 h 15 min
Bit rate : 210 b/s
Count of elements : 1189
Stream size : 117 KiB (0%)
Title : Yellow
Language : Thai
Default : No
Forced : No

Text #8
ID : 12
Format : VobSub
Muxing mode : zlib
Codec ID : S_VOBSUB
Codec ID/Info : Picture based subtitle format used on DVDs
Duration : 1 h 15 min
Bit rate : 14.2 kb/s
Count of elements : 1189
Stream size : 7.69 MiB (0%)
Title : AngsanaUPC
Language : Thai
Default : No
Forced : No

Text #9
ID : 13
Format : PGS
Muxing mode : zlib
Codec ID : S_HDMV/PGS
Codec ID/Info : Picture based subtitle format used on BDs/HD-DVDs
Duration : 1 h 15 min
Bit rate : 64.1 kb/s
Count of elements : 2378
Stream size : 34.6 MiB (1%)
Title : AngsanaUPC
Language : Thai
Default : No
Forced : No

Text #10
ID : 14
Format : UTF-8
Codec ID : S_TEXT/UTF8
Codec ID/Info : UTF-8 Plain Text
Duration : 1 h 15 min
Bit rate : 210 b/s
Count of elements : 1189
Stream size : 117 KiB (0%)
Title : Blue
Language : Thai
Default : No
Forced : No

Text #11
ID : 15
Format : UTF-8
Codec ID : S_TEXT/UTF8
Codec ID/Info : UTF-8 Plain Text
Duration : 1 h 18 min
Bit rate : 74 b/s
Count of elements : 1250
Stream size : 42.7 KiB (0%)
Title : Eng.Text
Language : English
Default : No
Forced : No

DOWNLOAD


PART01 |||| PART02 |||| PART03 |||| PART04 |||| PART05

PART01 |||| PART02 |||| PART03 |||| PART04 |||| PART05

PART01 |||| PART02 |||| PART03 |||| PART04 |||| PART05

PART01 |||| PART02 |||| PART03 |||| PART04 |||| PART05


Leave A Reply

Your email address will not be published.

%d bloggers like this: