[MINI-HD] The Twilight Saga: Eclipse (2010) แวมไพร์ ทไวไลท์ 3 อีคลิปส์ ภาค 3 [720p] [พากย์ไทย 5.1 + เสียงอังกฤษ 5.1] [บรรยายไทย + อังกฤษ] [ซับไทย + เสียงไทย] [PANDAFILE]

2

The Twilight Saga: Eclipse (2010)

โหลดหนัง The Twilight Saga: Eclipse (2010) แวมไพร์ ทไวไลท์ 3 อีคลิปส์ 

The Twilight Saga: Eclipse | June 30, 2010 (United States) Summary: As a string of mysterious killings grips Seattle, Bella, whose high school graduation is fast approaching, is forced to choose between her love for vampire Edward and her friendship with wer... Read all
Countries: United StatesLanguages: English

เรื่องย่อ The Twilight Saga: Eclipse (2010) แวมไพร์ ทไวไลท์ 3 อีคลิปส์

เมื่อ เบลล่าได้ให้คำมั่นแก่เจน แห่งกลุ่มโวลตูรี่ ที่ให้เอ็ดเวิร์ด เปลี่ยนเธอเป็นแวมไพร์เพื่อรักษาความลับของตระกลูคัลเลน และเผ่าพันธุ์แวมไพร์ไว้กับเธอตลอดไป แต่เอ็ดเวิร์ดกลับลังเลใจที่จะทำตามคำสัญญานั่นจนทำให้ทั้งคู่ต้องเผชิญกับการจู่โจมของแวมไพร์เพชฌฆาตกลุ่มใหม่ที่มี วิคตอเรีย เป็นผู้สร้างพวกมันขึ้น ด้วยอันตรายที่คอยคุกคามเบลล่า เจคอบและพ้องเพื่อนหมาป่าคอยวนเวียน และพิทักษ์เบลล่าตลอดวันและคืน จนทำให้ เจคอบ เผลอเผยความในใจที่มีต่อเบลล่าออกมา และเกือบต้องใช้ชีวิตตัวเองเพื่อพิทักษ์เบลล่าจากคมเขี้ยวของแวมไพร์กลุ่มนั้น!!!

Complete name : [MINI-HD]_Vampire.Twilight.saga.eclipse.2010.720p.x264.One2loadup.com.mkv
Format : Matroska
Format version : Version 2
File size : 3.19 GiB
Duration : 2 h 3 min
Overall bit rate : 3 685 kb/s
Encoded date : UTC 2010-12-09 18:30:45
Writing application : mkvmerge v4.4.0 (‘Die Wiederkehr’) built on Oct 31 2010 21:52:48
Writing library : libebml v1.0.0 + libmatroska v1.0.0

Video
ID : 1
Format : AVC
Format/Info : Advanced Video Codec
Format profile : [email protected]
Format settings, CABAC : Yes
Format settings, RefFrames : 3 frames
Muxing mode : Header stripping
Codec ID : V_MPEG4/ISO/AVC
Duration : 2 h 3 min
Bit rate : 2 524 kb/s
Width : 1 280 pixels
Height : 528 pixels
Display aspect ratio : 2.40:1
Frame rate mode : Constant
Frame rate : 23.976 FPS
Color space : YUV
Chroma subsampling : 4:2:0
Bit depth : 8 bits
Scan type : Progressive
Bits/(Pixel*Frame) : 0.156
Stream size : 2.18 GiB (68%)
Title : [MINI-HD]_Vampire.Twilight.saga.eclipse.2010.720p.x264.One2loadup.com
Language : English
Default : Yes
Forced : Yes

Audio #1
ID : 2
Format : AC-3
Format/Info : Audio Coding 3
Format settings, Endianness : Big
Muxing mode : Header stripping
Codec ID : A_AC3
Duration : 2 h 3 min
Bit rate mode : Constant
Bit rate : 640 kb/s
Channel(s) : 6 channels
Channel positions : Front: L C R, Side: L R, LFE
Sampling rate : 48.0 kHz
Frame rate : 31.250 FPS (1536 SPF)
Bit depth : 16 bits
Compression mode : Lossy
Delay relative to video : -9 ms
Stream size : 567 MiB (17%)
Title : English 5.1 Dolby Digital
Language : English
Service kind : Complete Main
Default : No
Forced : Yes

Audio #2
ID : 8
Format : AC-3
Format/Info : Audio Coding 3
Format settings, Endianness : Big
Muxing mode : Header stripping
Codec ID : A_AC3
Duration : 2 h 3 min
Bit rate mode : Constant
Bit rate : 448 kb/s
Channel(s) : 6 channels
Channel positions : Front: L C R, Side: L R, LFE
Sampling rate : 48.0 kHz
Frame rate : 31.250 FPS (1536 SPF)
Bit depth : 16 bits
Compression mode : Lossy
Delay relative to video : -9 ms
Stream size : 397 MiB (12%)
Title : พากย์ไทยมาสเตอร์ 5.1
Language : Thai
Service kind : Complete Main
Default : Yes
Forced : Yes

Text #1
ID : 3
Format : SSA
Codec ID : S_TEXT/SSA
Codec ID/Info : Sub Station Alpha
Compression mode : Lossless
Title : Sub Thai
Language : Thai
Default : Yes
Forced : Yes

Text #2
ID : 4
Format : UTF-8
Codec ID : S_TEXT/UTF8
Codec ID/Info : UTF-8 Plain Text
Title : ซับไทยแบบ SubRip .SRT
Language : Thai
Default : No
Forced : Yes

Text #3
ID : 5
Format : VobSub
Muxing mode : zlib
Codec ID : S_VOBSUB
Codec ID/Info : Picture based subtitle format used on DVDs
Title : Sub Thai
Language : Thai
Default : No
Forced : Yes

Text #4
ID : 6
Format : VobSub
Muxing mode : zlib
Codec ID : S_VOBSUB
Codec ID/Info : Picture based subtitle format used on DVDs
Title : Sub Thai
Language : Thai
Default : No
Forced : Yes

Text #5
ID : 7
Format : UTF-8
Codec ID : S_TEXT/UTF8
Codec ID/Info : UTF-8 Plain Text
Title : ซับอังกฤษมาสเตอร์โซน 1
Language : English
Default : No
Forced : Yes

Text #6
ID : 9
Format : VobSub
Muxing mode : zlib
Codec ID : S_VOBSUB
Codec ID/Info : Picture based subtitle format used on DVDs
Title : ซับไทยมาสเตอร์ดีวีดีโซน3
Language : Thai
Default : No
Forced : Yes

Text #7
ID : 10
Format : VobSub
Muxing mode : zlib
Codec ID : S_VOBSUB
Codec ID/Info : Picture based subtitle format used on DVDs
Title : ซับอังกฤษมาสเตอร์ดีวีดีโซน3
Language : English
Default : No
Forced : Yes

DOWNLOAD


PART01 |||| PART02 |||| PART03 |||| PART04

PART01 |||| PART02 |||| PART03 |||| PART04

PART01 |||| PART02 |||| PART03 |||| PART04

PART01 |||| PART02 |||| PART03 |||| PART04

PART01 |||| PART02 |||| PART03 |||| PART04


2 Comments
  1. un says

    ไฟล์2เสียครับ

    1. Admin
      Admin says

      แก้ไขเรียบร้อยฮ๊ะ

Leave A Reply

อีเมล์ของคุณจะไม่แสดงให้เห็น Your email address will not be published.

%d bloggers like this: