[MINI-HD] The Twilight Saga: Breaking Dawn – Part 2 (2012) แวมไพร์ ทไวไลท์ 4 เบรกกิ้งดอน ภาค 2 [720p] [พากย์ไทย 5.1 + เสียงอังกฤษ 5.1] [Bluray.x264] [บรรยายไทย + อังกฤษ] [ซับไทย + เสียงไทย] [PANDAFILE]

3

โหลดหนัง The Twilight Saga: Breaking Dawn – Part 2 (2012) แวมไพร์ ทไวไลท์ 4 เบรกกิ้งดอน ภาค 2

The Twilight Saga: Breaking Dawn - Part 2 | November 16, 2012 (United States) Summary: After the birth of Renesmee/Nessie, the Cullens gather other vampire clans in order to protect the child from a false allegation that puts the family in front of the Volturi.
Countries: United StatesLanguages: English

เรื่องย่อ The Twilight Saga: Breaking Dawn – Part 2 (2012) แวมไพร์ ทไวไลท์ 4 เบรกกิ้งดอน ภาค 2

เบลล่า (คริสเต็น สจ๊วต) ใช้เวลาปรับตัวกับชีวิตใหม่ในการเป็นแวมไพร์กลุ่มแวมไพร์โวลตูรี่ก็แสดงความต้องการตัว เรเนสมี ลูกสาวของ เอ็ดเวิร์ด (โรเบิร์ต แพททินสัน) และ เบลล่า มาครอบครองครอบครัวคัลเลนจึงขอความช่วยเหลือจากกลุ่มแวมไพร์พันธมิตรทั่วโลก รวมถึง เจคอบ (เทย์เลอร์ เลาท์เนอร์) ที่ผูกวิญญาณกับ เรเนสมีแล้วเพื่อร่วมต่อสู้ในสงครามครั้งสุดท้ายกับกลุ่มแวมไพร์โวลตูรี่ ที่จะเป็นบทสรุปของทุกสิ่ง สงครามแวมไพร์ที่จะเกิดขึ้นในช่วงไคลแมกซ์ถือเป็นการแนะนำให้รู้จักกับกลุ่มแวมไพร์ทั่วโลก ไม่ว่าจะเป็นกลุ่มแวมไพร์เดนาลี พันธมิตรของครอบครัวคัลเลน กลุ่มแวมไพร์จากอียิปต์นำโดย เบนจามิน ที่มีความสามารถในการควบคุมธาตุทั้งสี่ ดิน น้ำ ลม ไฟ รวมถึง แกเร็ธ แวมไพร์เร่ร่อนเจ้าสเน่ห์ ที่เป็นเพื่อนเก่าของ เอ็ดเวิร์ด!!!

Complete name : [MINI-HD]_Vampire.Twilight.Saga.Breaking.Dawn.Part.2.2012.720p.x264.One2loadup.com.mkv
Format : Matroska
Format version : Version 2
File size : 3.51 GiB
Duration : 1 h 55 min
Overall bit rate mode : Variable
Overall bit rate : 4 366 kb/s
Movie name : The Twilight Saga Breaking Dawn Part 2
Encoded date : UTC 2013-02-26 21:48:49
Writing application : mkvmerge v4.9.1 (‘Ich will’) built on Jul 11 2011 23:53:15
Writing library : libebml v1.2.1 + libmatroska v1.1.1

Video
ID : 1
Format : AVC
Format/Info : Advanced Video Codec
Format profile : [email protected]
Format settings, CABAC : Yes
Format settings, RefFrames : 8 frames
Muxing mode : Header stripping
Codec ID : V_MPEG4/ISO/AVC
Duration : 1 h 55 min
Bit rate mode : Variable
Bit rate : 3 523 kb/s
Maximum bit rate : 300 Mb/s
Width : 1 280 pixels
Height : 534 pixels
Display aspect ratio : 2.40:1
Frame rate mode : Constant
Frame rate : 23.976 (24000/1001) FPS
Color space : YUV
Chroma subsampling : 4:2:0
Bit depth : 8 bits
Scan type : Progressive
Bits/(Pixel*Frame) : 0.215
Stream size : 2.77 GiB (79%)
Title : [MINI-HD]_Vampire.Twilight.Saga.Breaking.Dawn.Part.2.2012.720p.x264.One2loadup.com
Writing library : x264 core 129 r2245 bc13772
Encoding settings : cabac=1 / ref=8 / deblock=1:0:0 / analyse=0x3:0x133 / me=umh / subme=10 / psy=1 / psy_rd=1.00:0.00 / mixed_ref=1 / me_range=24 / chroma_me=1 / trellis=2 / 8x8dct=1 / cqm=0 / deadzone=21,11 / fast_pskip=1 / chroma_qp_offset=-2 / threads=9 / lookahead_threads=1 / sliced_threads=0 / nr=0 / decimate=1 / interlaced=0 / bluray_compat=0 / constrained_intra=0 / bframes=5 / b_pyramid=0 / b_adapt=2 / b_bias=0 / direct=3 / weightb=1 / open_gop=0 / weightp=2 / keyint=240 / keyint_min=24 / scenecut=40 / intra_refresh=0 / rc_lookahead=60 / rc=2pass / mbtree=1 / bitrate=3523 / ratetol=1.0 / qcomp=0.60 / qpmin=0 / qpmax=69 / qpstep=4 / cplxblur=20.0 / qblur=0.5 / vbv_maxrate=300000 / vbv_bufsize=300000 / nal_hrd=vbr / ip_ratio=1.40 / aq=1:1.00
Language : English
Default : Yes
Forced : No

Audio #1
ID : 2
Format : AC-3
Format/Info : Audio Coding 3
Format settings, Endianness : Big
Muxing mode : Header stripping
Codec ID : A_AC3
Duration : 1 h 55 min
Bit rate mode : Constant
Bit rate : 448 kb/s
Channel(s) : 6 channels
Channel positions : Front: L C R, Side: L R, LFE
Sampling rate : 48.0 kHz
Frame rate : 31.250 FPS (1536 SPF)
Bit depth : 16 bits
Compression mode : Lossy
Delay relative to video : 2 s 66 ms
Stream size : 369 MiB (10%)
Title : Thai DVD Master
Language : Thai
Service kind : Complete Main
Default : Yes
Forced : No

Audio #2
ID : 3
Format : AC-3
Format/Info : Audio Coding 3
Format settings, Endianness : Big
Muxing mode : Header stripping
Codec ID : A_AC3
Duration : 1 h 55 min
Bit rate mode : Constant
Bit rate : 384 kb/s
Channel(s) : 6 channels
Channel positions : Front: L C R, Side: L R, LFE
Sampling rate : 48.0 kHz
Frame rate : 31.250 FPS (1536 SPF)
Bit depth : 16 bits
Compression mode : Lossy
Stream size : 316 MiB (9%)
Title : ac3 6ch br-master
Language : English
Service kind : Complete Main
Default : No
Forced : No

Text #1
ID : 4
Format : VobSub
Muxing mode : zlib
Codec ID : S_VOBSUB
Codec ID/Info : Picture based subtitle format used on DVDs
Title : Thai 480p From DVD Master
Language : Thai
Default : No
Forced : No

Text #2
ID : 5
Format : VobSub
Muxing mode : zlib
Codec ID : S_VOBSUB
Codec ID/Info : Picture based subtitle format used on DVDs
Title : Thai 1080p Out
Language : Thai
Default : No
Forced : No

Text #3
ID : 6
Format : VobSub
Muxing mode : zlib
Codec ID : S_VOBSUB
Codec ID/Info : Picture based subtitle format used on DVDs
Title : Thai 1080p
Language : Thai
Default : No
Forced : No

Text #4
ID : 7
Format : VobSub
Muxing mode : zlib
Codec ID : S_VOBSUB
Codec ID/Info : Picture based subtitle format used on DVDs
Title : pgs br-master
Language : English
Default : No
Forced : No

DOWNLOAD


PART01 |||| PART02 |||| PART03 |||| PART04

PART01 |||| PART02 |||| PART03 |||| PART04

PART01 |||| PART02 |||| PART03 |||| PART04

PART01 |||| PART02 |||| PART03 |||| PART04

PART01 |||| PART02 |||| PART03 |||| PART04


3 Comments
  1. Muii
    Muii says

    รบกวนโหลดไฟล์ให้ใหม่ได้มั้ยคะ File not found ค่ะ

    1. Admin
      Admin says

      แก้ไขเรียบร้อยฮ๊ะ

      1. Muii
        Muii says

        ขอบคุณค่ะ

Leave A Reply

อีเมล์ของคุณจะไม่แสดงให้เห็น Your email address will not be published.

%d bloggers like this: