[MINI-HD] The Warrior’s Gate (2016) นักรบทะลุประตูมหัศจรรย์ [1080p] [พากย์ไทย 5.1 + เสียงอังกฤษ 2.0] [บรรยายไทย + อังกฤษ + (ซับจีนฝัง)] [เสียงไทย + ซับไทย] [PANDAFILE]

0

โหลดหนัง The Warrior’s Gate (2016) นักรบทะลุประตูมหัศจรรย์

The Warriors Gate (2016) 1h 48min | Action, Adventure, Comedy | 18 November 2016 (China) Summary: A teenager is magically transported to China and learns to convert his video game skills into those of a Kung Fu warrior.
Countries: France, China, Canada, CambodiaLanguages: English, Chinese, Khmer

เรื่องย่อ The Warrior’s Gate (2016) นักรบทะลุประตูมหัศจรรย์

พูดถึงดินแดนแสนสงบสุขในโลกตะวันออก ที่อยู่มาวันหนึ่งต้องเผชิญกับการรุกรานของเหล่าคนเถื่อนชาวบาร์บาเรียน ที่พยายามบุกยึดครองแผ่นดินอาศัยจนนำสู่เรื่องราวการต่อสู้ของ 2 ชาติพันธุ์ที่แตกต่าง ซึ่งเกี่ยวข้องกับสิ่งลี้ลับ และความมหัศจรรย์เหนือคาดคิด หนึ่งในนั้นก็คือ   แจ็ค   เด็กชายชาวตะวันตกที่หลุดข้ามมิติมาจากโลกปัจจุบัน และต้องเปลี่ยนชีวิตตัวเองสู่วิถีนักรับที่ต้องต่อสู้ห้ำหั่นเหมือนเรื่องราวในเกม และเขาจำเป็นต้องอาศัยเทคนิคความรู้จากเกมที่เคยเล่น มาใช้เป็นสิ่งที่ช่วยในการชนะสงครามครั้งนี้ อีกทั้งยังต้องช่วยชีวิตเจ้าหญิงของอาณาจักร และเป็นเพื่อนของเขาให้จงได้!!!

Complete name : [MINI-HD]_The.Warrior.s.Gate.2016.1080p.HDRip.AC3.x264.One2loadup.com.mkv
Format : Matroska
Format version : Version 4
File size : 3.04 GiB
Duration : 1 h 44 min
Overall bit rate : 4 144 kb/s
Movie name : [MINI-HD]_The.Warrior.s.Gate.2016.1080p.HDRip.AC3.x264.One2loadup.com
Encoded date : UTC 2010-02-22 21:41:31
Writing application : mkvmerge v5.9.0 (‘On The Loose’) built on Dec 9 2012 15:37:01
Writing library : libebml v1.3.0 + libmatroska v1.4.0

Video
ID : 1
Format : AVC
Format/Info : Advanced Video Codec
Format profile : [email protected]
Format settings : CABAC / 4 Ref Frames
Format settings, CABAC : Yes
Format settings, ReFrames : 4 frames
Muxing mode : Header stripping
Codec ID : V_MPEG4/ISO/AVC
Duration : 1 h 44 min
Nominal bit rate : 3 481 kb/s
Width : 1 920 pixels
Height : 800 pixels
Display aspect ratio : 2.40:1
Frame rate mode : Constant
Frame rate : 25.000 FPS
Color space : YUV
Chroma subsampling : 4:2:0
Bit depth : 8 bits
Scan type : Progressive
Bits/(Pixel*Frame) : 0.091
Title : [MINI-HD]_The.Warrior.s.Gate.2016.1080p.HDRip.AC3.x264.One2loadup.com
Writing library : x264 core 130 r2273 b3065e6
Encoding settings : cabac=1 / ref=4 / deblock=1:0:0 / analyse=0x3:0x133 / me=umh / subme=7 / psy=1 / psy_rd=1.00:0.00 / mixed_ref=1 / me_range=24 / chroma_me=1 / trellis=1 / 8x8dct=1 / cqm=0 / deadzone=21,11 / fast_pskip=1 / chroma_qp_offset=-2 / threads=6 / lookahead_threads=1 / sliced_threads=0 / nr=0 / decimate=1 / interlaced=0 / bluray_compat=0 / constrained_intra=0 / bframes=4 / b_pyramid=2 / b_adapt=2 / b_bias=0 / direct=1 / weightb=1 / open_gop=0 / weightp=2 / keyint=250 / keyint_min=25 / scenecut=40 / intra_refresh=0 / rc_lookahead=40 / rc=abr / mbtree=1 / bitrate=3481 / ratetol=1.0 / qcomp=0.60 / qpmin=0 / qpmax=69 / qpstep=4 / ip_ratio=1.40 / aq=1:1.00
Language : English
Default : Yes
Forced : No
Color range : Limited
Color primaries : BT.709
Transfer characteristics : BT.709
Matrix coefficients : BT.709

Audio #1
ID : 2
Format : AC-3
Format/Info : Audio Coding 3
Commercial name : Dolby Digital
Muxing mode : Header stripping
Codec ID : A_AC3
Duration : 1 h 44 min
Bit rate mode : Constant
Bit rate : 448 kb/s
Channel(s) : 6 channels
Channel layout : L R C LFE Ls Rs
Sampling rate : 48.0 kHz
Frame rate : 31.250 FPS (1536 SPF)
Bit depth : 16 bits
Compression mode : Lossy
Stream size : 336 MiB (11%)
Title : Thai 5.1 [448 Kbps] AC.3
Language : Thai
Service kind : Complete Main
Default : No
Forced : No

Audio #2
ID : 3
Format : AC-3
Format/Info : Audio Coding 3
Commercial name : Dolby Digital
Muxing mode : Header stripping
Codec ID : A_AC3
Duration : 1 h 44 min
Bit rate mode : Constant
Bit rate : 192 kb/s
Channel(s) : 2 channels
Channel layout : L R
Sampling rate : 48.0 kHz
Frame rate : 31.250 FPS (1536 SPF)
Bit depth : 16 bits
Compression mode : Lossy
Stream size : 144 MiB (5%)
Title : English 2.0 [192 Kbps] AC.3
Language : English
Service kind : Complete Main
Default : Yes
Forced : No

Audio #3
ID : 8
Format : AAC LC
Format/Info : Advanced Audio Codec Low Complexity
Codec ID : A_AAC-2
Duration : 1 h 44 min
Channel(s) : 2 channels
Channel layout : L R
Sampling rate : 44.1 kHz
Frame rate : 43.066 FPS (1024 SPF)
Compression mode : Lossy
Title : Thai AAC.
Language : Thai
Default : No
Forced : No

Text #1
ID : 4
Format : VobSub
Muxing mode : zlib
Codec ID : S_VOBSUB
Codec ID/Info : Picture based subtitle format used on DVDs
Title : Thai 480p. From DVD
Language : Thai
Default : No
Forced : No

Text #2
ID : 5
Format : PGS
Muxing mode : zlib
Codec ID : S_HDMV/PGS
Codec ID/Info : Picture based subtitle format used on BDs/HD-DVDs
Title : Thai PGS. [Yellow]
Language : Thai
Default : No
Forced : No

Text #3
ID : 6
Format : PGS
Muxing mode : zlib
Codec ID : S_HDMV/PGS
Codec ID/Info : Picture based subtitle format used on BDs/HD-DVDs
Title : Thai PGS. Big [Yellow]
Language : Thai
Default : Yes
Forced : No

Text #4
ID : 7
Format : UTF-8
Codec ID : S_TEXT/UTF8
Codec ID/Info : UTF-8 Plain Text
Title : English SRT.
Language : English
Default : No
Forced : No

DOWNLOAD


PART01 |||| PART02 |||| PART03 |||| PART04

PART01 |||| PART02 |||| PART03 |||| PART04

PART01 |||| PART02 |||| PART03 |||| PART04

PART01 |||| PART02 |||| PART03 |||| PART04

PART01 |||| PART02 |||| PART03 |||| PART04


Leave A Reply

Your email address will not be published.

%d bloggers like this: