[MINI-HD] The Silence of the Lambs (1991) อำมหิตไม่เงียบ [720p] [พากย์ไทย 5.1 + เสียงอังกฤษ 5.1] [บรรยายไทย + อังกฤษ] [เสียงไทย + ซับไทย] [PANDAFILE]

3

โหลดหนัง The Silence of the Lambs (1991) อำมหิตไม่เงียบ

The Silence of the Lambs | February 14, 1991 (United States) Summary: A young F.B.I. cadet must receive the help of an incarcerated and manipulative cannibal killer to help catch another serial killer, a madman who skins his victims.
Countries: United StatesLanguages: English, Latin

เรื่องย่อ The Silence of the Lambs (1991) อำมหิตไม่เงียบ

อำมหิตไม่เงียบ(อังกฤษ: The Silence of the Lambs ) เป็นภาพยนตร์ลึกลับ-สยองขวัญ ดัดแปลงมาจากนวนิยายในชื่อเดียวกัน นำแสดงโดยโจดี ฟอสเตอร์และแอนโทนี ฮ็อปกินส์ออกฉายในวัน14 กุมภาพันธ์ 1991 เนื้อเรื่องเกี่ยวกับแคลลิช สตาร์ลิ่ง(โจดี ฟอสเตอร์)เจ้าหน้าที่เอฟบีไอฝึกงานที่ได้รับมอบหมายให้สืบคดีฆาตกรรมต่อเนื่อง ที่มีฆาตกรใช้ชื่อแฝงว่า “บัฟฟาโร่ บิล” จนกระทั่งเธอได้พบกับ ดร.ฮันนิบาล เลคเตอร์(แอนโทนี ฮ็อปกินส์)อดีตฆาตกรซึ่งถูกบำบัดจิตอยู่ เธอพบว่าเลคเตอร์มีบางอย่างเกี่ยวข้องกับบัฟฟาโร่ บิล เธอจึงพยายามสืบและรู้ตัวจริงของบัฟฟาโร่ บิลให้ได้ แต่ในที่สุดก็เกิดเรื่องเมื่อลูกสาวของวุฒิสมาชิกถูกบัฟฟาโล่ บิลจับตัวไป เธอจึงต้องจับตัวบัฟฟาโร่บิลให้จงได้ เพื่อที่จะช่วยลูกสาวของวุฒิสมาชิกและเธอรู้ว่าเลคเตอร์คือกุญแจที่จะไขให้เธอพบตัวจริงของบัฟฟาโร่บิล ภาพยนตร์เรื่องนี้ได้รับรางวัลออสการ์ไปทั้งหมด 5สาขาได้แก่ สาขาภาพยนตร์ยอดเยี่ยม,สาขาผู้กำกับยอดเยี่ยม,สาขาบทภาพยนตร์ดัดแปลงยอดเยี่ยม,สาขานักแสดงนำชายยอดเยี่ยมและสาขานักแสดงนำหญิงซึ่งเป็น 5 รางวัลใหญ่ของเวทีรางวัลออสการ์ทั้งสิ้น

Complete name : แ.mkv
Format : Matroska
Format version : Version 4 / Version 2
File size : 3.08 GiB
Duration : 1 h 58 min
Overall bit rate : 3 721 kb/s
Movie name : [MINI-HD]_The.Silence.of.the.Lambs.1991.720p.BluRay.AC3.x264.Oneload2up.com
Encoded date : UTC 2014-11-24 03:15:51
Writing application : mkvmerge v6.9.1 (‘Blue Panther’) 32bit built on Apr 18 2014 18:15:44
Writing library : libebml v1.3.0 + libmatroska v1.4.1

Video
ID : 1
Format : AVC
Format/Info : Advanced Video Codec
Format profile : [email protected]
Format settings, CABAC : Yes
Format settings, RefFrames : 4 frames
Codec ID : V_MPEG4/ISO/AVC
Duration : 1 h 58 min
Bit rate : 3 000 kb/s
Width : 1 280 pixels
Height : 688 pixels
Display aspect ratio : 1.85:1
Frame rate mode : Constant
Frame rate : 23.976 (23976/1000) FPS
Original frame rate : 23.976 (24000/1001) FPS
Color space : YUV
Chroma subsampling : 4:2:0
Bit depth : 8 bits
Scan type : Progressive
Bits/(Pixel*Frame) : 0.142
Stream size : 2.46 GiB (80%)
Title : [MINI-HD]_The.Silence.of.the.Lambs.1991.720p.BluRay.AC3x264.Oneload2up.com
Writing library : x264 core 130 r2273 b3065e6
Encoding settings : cabac=1 / ref=3 / deblock=1:0:0 / analyse=0x3:0x113 / me=hex / subme=7 / psy=1 / psy_rd=1.00:0.00 / mixed_ref=1 / me_range=16 / chroma_me=1 / trellis=1 / 8x8dct=1 / cqm=0 / deadzone=21,11 / fast_pskip=1 / chroma_qp_offset=-2 / threads=6 / lookahead_threads=1 / sliced_threads=0 / nr=0 / decimate=1 / interlaced=0 / bluray_compat=0 / constrained_intra=0 / bframes=3 / b_pyramid=2 / b_adapt=1 / b_bias=0 / direct=1 / weightb=1 / open_gop=0 / weightp=2 / keyint=240 / keyint_min=24 / scenecut=40 / intra_refresh=0 / rc_lookahead=40 / rc=2pass / mbtree=1 / bitrate=3000 / ratetol=1.0 / qcomp=0.60 / qpmin=0 / qpmax=69 / qpstep=4 / cplxblur=20.0 / qblur=0.5 / vbv_maxrate=62500 / vbv_bufsize=78125 / nal_hrd=none / ip_ratio=1.40 / aq=1:1.00
Language : English
Default : Yes
Forced : Yes
Color range : Limited
Color primaries : BT.709
Transfer characteristics : BT.709
Matrix coefficients : BT.709

Audio #1
ID : 2
Format : AC-3
Format/Info : Audio Coding 3
Mode : Dolby Digital
Format settings, Endianness : Big
Codec ID : A_AC3
Duration : 1 h 58 min
Bit rate mode : Constant
Bit rate : 224 kb/s
Channel(s) : 2 channels
Channel positions : Front: L R
Sampling rate : 48.0 kHz
Frame rate : 31.250 FPS (1536 SPF)
Bit depth : 16 bits
Compression mode : Lossy
Stream size : 190 MiB (6%)
Title : Thai AC-3 2.0 at 224 Kbps BluRay Master
Language : Thai
Service kind : Complete Main
Default : Yes
Forced : Yes

Audio #2
ID : 3
Format : AC-3
Format/Info : Audio Coding 3
Format settings, Endianness : Big
Codec ID : A_AC3
Duration : 1 h 58 min
Bit rate mode : Constant
Bit rate : 448 kb/s
Channel(s) : 6 channels
Channel positions : Front: L C R, Side: L R, LFE
Sampling rate : 48.0 kHz
Frame rate : 31.250 FPS (1536 SPF)
Bit depth : 16 bits
Compression mode : Lossy
Stream size : 380 MiB (12%)
Title : English AC-3 5.1 at 448 Kbps
Language : English
Service kind : Complete Main
Default : No
Forced : No

Text #1
ID : 4
Format : VobSub
Muxing mode : zlib
Codec ID : S_VOBSUB
Codec ID/Info : Picture based subtitle format used on DVDs
Title : Thai 480p
Language : Thai
Default : No
Forced : No

Text #2
ID : 5
Format : VobSub
Muxing mode : zlib
Codec ID : S_VOBSUB
Codec ID/Info : Picture based subtitle format used on DVDs
Title : Thai 720p
Language : Thai
Default : No
Forced : No

Text #3
ID : 6
Format : VobSub
Muxing mode : zlib
Codec ID : S_VOBSUB
Codec ID/Info : Picture based subtitle format used on DVDs
Title : Thai 1080p BluRay Master
Language : Thai
Default : Yes
Forced : Yes

Text #4
ID : 7
Format : PGS
Muxing mode : zlib
Codec ID : S_HDMV/PGS
Codec ID/Info : Picture based subtitle format used on BDs/HD-DVDs
Title : Thai PGS BluRay Master
Language : Thai
Default : No
Forced : No

Text #5
ID : 8
Format : VobSub
Muxing mode : zlib
Codec ID : S_VOBSUB
Codec ID/Info : Picture based subtitle format used on DVDs
Title : English 1080p BluRay Master
Language : English
Default : No
Forced : No

Text #6
ID : 9
Format : PGS
Muxing mode : zlib
Codec ID : S_HDMV/PGS
Codec ID/Info : Picture based subtitle format used on BDs/HD-DVDs
Title : English PGS BluRay Master
Language : English
Default : No
Forced : No

Text #7
ID : 10
Format : VobSub
Muxing mode : zlib
Codec ID : S_VOBSUB
Codec ID/Info : Picture based subtitle format used on DVDs
Title : English SDH 1080p BluRay Master
Language : English
Default : No
Forced : No

Text #8
ID : 11
Format : PGS
Muxing mode : zlib
Codec ID : S_HDMV/PGS
Codec ID/Info : Picture based subtitle format used on BDs/HD-DVDs
Title : English SDH PGS BluRay Master
Language : English
Default : No
Forced : No

Text #9
ID : 12
Format : UTF-8
Codec ID : S_TEXT/UTF8
Codec ID/Info : UTF-8 Plain Text
Title : English SRT
Language : English
Default : No
Forced : No

Text #10
ID : 13
Format : UTF-8
Codec ID : S_TEXT/UTF8
Codec ID/Info : UTF-8 Plain Text
Title : English SDH SRT
Language : English
Default : No
Forced : No

DOWNLOAD


PART01 |||| PART02 |||| PART03 |||| PART04

PART01 |||| PART02 |||| PART03 |||| PART04

PART01 |||| PART02 |||| PART03 |||| PART04

PART01 |||| PART02 |||| PART03 |||| PART04

PART01 |||| PART02 |||| PART03 |||| PART04


 

3 Comments
  1. Boy says

    โหลดไม่ได้ครับ

    1. Admin
      Admin says

      แก้ไขเรียบร้อยฮ๊ะ

      1. Boy says

        ขอบคุณครับ

Leave A Reply

อีเมล์ของคุณจะไม่แสดงให้เห็น Your email address will not be published.

%d bloggers like this: