[MINI-HD] The Secret Garden (2020) มหัศจรรย์ในสวนลับ [1080p] [พากย์ไทย 2.0 + เสียงอังกฤษ 5.1] [บรรยายไทย + อังกฤษ] [เสียงไทยมาสเตอร์ + ซับไทย] [PANDAFILE]

0

โหลดหนัง The Secret Garden (2020) มหัศจรรย์ในสวนลับ

The Secret Garden | August 7, 2020 (United States) Summary: An orphaned girl discovers a magical garden hidden at her strict uncle's estate.
Countries: United Kingdom, France, United States, ChinaLanguages: English

เรื่องย่อ The Secret Garden (2020) มหัศจรรย์ในสวนลับ

Mary Lennox เกิดในอินเดียกับพ่อแม่ชาวอังกฤษที่ร่ำรวยที่ไม่เคยต้องการเธอ เมื่อพ่อแม่ของเธอเสียชีวิตอย่างกะทันหันเธอจึงถูกส่ งกลับอังกฤษเพื่อไปอยู่กับลุงของเธอ เธอได้พบกับลูกพี่ลูกน้องที่ป่วยและเด็กทั้งสองได้พบกับสวนลับสุดมหัศจรรย์ที่หายไปในบริเวณคฤหาสน์ Misselthwaite

Complete name : [MINI-HD]_The.Secret.Garden.2020.1080p.WEB-DL.AC3.x264.THM.One2loadup.com.mkv
Format : Matroska
Format version : Version 4
File size : 4.76 GiB
Duration : 1 h 39 min
Overall bit rate : 6 831 kb/s
Movie name : [MINI-HD]_The.Secret.Garden.2020.1080p.WEB-DL.AC3.x264.THM.One2loadup.com
Encoded date : UTC 2021-05-20 17:04:02
Writing application : mkvmerge v56.1.0 (‘My Friend’) 64-bit
Writing library : libebml v1.4.2 + libmatroska v1.6.4
Cover : Yes
Attachments : cover.jpg

Video
ID : 1
Format : AVC
Format/Info : Advanced Video Codec
Format profile : [email protected]
Format settings : CABAC / 2 Ref Frames
Format settings, CABAC : Yes
Format settings, Reference : 2 frames
Codec ID : V_MPEG4/ISO/AVC
Duration : 1 h 39 min
Bit rate : 6 245 kb/s
Width : 1 920 pixels
Height : 1 080 pixels
Display aspect ratio : 16:9
Frame rate mode : Constant
Frame rate : 23.976 (24000/1001) FPS
Color space : YUV
Chroma subsampling : 4:2:0
Bit depth : 8 bits
Scan type : Progressive
Bits/(Pixel*Frame) : 0.126
Stream size : 4.35 GiB (91%)
Title : [MINI-HD]_The.Secret.Garden.2020.1080p.WEB-DL.AC3.x264.THM.One2loadup.com
Writing library : x264 core 155 r2901 7d0ff22
Language : English
Default : Yes
Forced : No
Color range : Limited
Color primaries : BT.709
Transfer characteristics : BT.709
Matrix coefficients : BT.709

Audio #1
ID : 2
Format : AC-3
Format/Info : Audio Coding 3
Commercial name : Dolby Digital
Codec ID : A_AC3
Duration : 1 h 39 min
Bit rate mode : Constant
Bit rate : 384 kb/s
Channel(s) : 6 channels
Channel layout : L R C LFE Ls Rs
Sampling rate : 48.0 kHz
Frame rate : 31.250 FPS (1536 SPF)
Compression mode : Lossy
Stream size : 274 MiB (6%)
Title : AC-3..DD5.1: 384 kb/s
Language : English
Service kind : Complete Main
Default : Yes
Forced : No

Audio #2
ID : 3
Format : AC-3
Format/Info : Audio Coding 3
Commercial name : Dolby Digital
Codec ID : A_AC3
Duration : 1 h 39 min
Bit rate mode : Constant
Bit rate : 192 kb/s
Channel(s) : 2 channels
Channel layout : L R
Sampling rate : 48.0 kHz
Frame rate : 31.250 FPS (1536 SPF)
Compression mode : Lossy
Stream size : 137 MiB (3%)
Title : THAI MASTER 2.0
Language : Thai
Service kind : Complete Main
Default : No
Forced : No

Text #1
ID : 4
Format : VobSub
Muxing mode : zlib
Codec ID : S_VOBSUB
Codec ID/Info : Picture based subtitle format used on DVDs
Duration : 1 h 33 min
Bit rate : 7 322 b/s
Count of elements : 907
Stream size : 4.91 MiB (0%)
Title : Thai Vob 1080p
Language : Thai
Default : Yes
Forced : No

Text #2
ID : 5
Format : VobSub
Muxing mode : zlib
Codec ID : S_VOBSUB
Codec ID/Info : Picture based subtitle format used on DVDs
Duration : 1 h 32 min
Bit rate : 8 349 b/s
Count of elements : 841
Stream size : 5.55 MiB (0%)
Title : English Vob Green
Language : English
Default : No
Forced : No

DOWNLOAD


PART01 |||| PART02 |||| PART03 |||| PART04 |||| PART05

PART01 |||| PART02 |||| PART03 |||| PART04 |||| PART05

PART01 |||| PART02 |||| PART03 |||| PART04 |||| PART05

PART01 |||| PART02 |||| PART03 |||| PART04 |||| PART05

PART01 |||| PART02 |||| PART03 |||| PART04 |||| PART05


Leave A Reply

อีเมล์ของคุณจะไม่แสดงให้เห็น Your email address will not be published.

%d bloggers like this: