[MINI-HD] The Road to El Dorado (2000) ผจญภัยแดนมหัศจรรย์ เอลโดราโด้ [720p] [พากย์ไทย 5.1 + เสียงอังกฤษ 5.1] [บรรยายไทย + อังกฤษ] [เสียงไทย + ซับไทย] [PANDAFILE]

0

โหลดหนัง The Road to El Dorado (2000) ผจญภัยแดนมหัศจรรย์ เอลโดราโด้

The Road to El Dorado (2000) 1h 29min | Animation, Adventure, Comedy | 31 March 2000 (USA) Summary: Two swindlers get their hands on a map to the fabled city of gold, El Dorado.
Countries: USALanguages: English

เรื่องย่อ The Road to El Dorado (2000) ผจญภัยแดนมหัศจรรย์ เอลโดราโด้

เป็นเทพนิยายขำขันคลาสสิคที่กล่าวถึงความสัมพันธ์ของ เพื่อนคู่ซี้และการผจญ ภัย ทูลิโอ (เควิน ไคลน์) และ มิเกล (เคนเน็ท บราเน็จฮ์) คู่หูจอมป่วนที่เชื่อว่าพวกเขากำลังดวงขึ้นเมื่อได้แผนที่เมืองเอลโดราโด นครทองคำที่เป็นตำนานมาช้านานมาครอบครอง แต่ปัญหามีอยู่ว่าพวกเขาถูกจับขังไว้ในเรือของนักสำรวจชาวสเปน และเมื่อทั้งสองหนีรอดออกมาได้ด้วยความช่วยเหลือของม้าแสนรู้ชื่อ อัลติโว พวกเขาวางแผนเดินทางไปสู่ดินแดนเอลโดราโด เพียงเพื่อพบกับเรื่องยุ่งๆที่ เพิ่งจะเริ่มต้นขึ้น มหาปุโรหิต ทีซีเคล-คาน (อาร์มันด์ แอซแซนเต้) ได้ประกาศตัวว่าตนคือพระเจ้า เขาได้ฉวยโอกาสใช้การเดินทางของพวกเขามาเป็นช่องทางยึดอำนาจของหัวหน้าเผ่า (เอ็ดวาร์ดเจมส์ ออลโมส) เพื่อหยุดยั้งกลลวงและครอบครองทองคำ ทูลิโอและมิเกลจึงต้องให้ช่วยเหลือแก่สาวชาวเผ่าคนสวยนาม เชล (โรซี่ เปเรซ)แต่เวลากำลังจะหมดไป ในขณะที่พวกเขากำลังจะได้ครอบครองทองคำตามที่ฝันไว้ มิตรภาพของพวกเขาก็กำลังจะขาดสะบั้นลง

Complete name : [MINI-HD]_The.Road.to.El.Dorado.2000.720p.BrRip.AC3.x264.One2loadup.com.mkv
Format : Matroska
Format version : Version 2
File size : 3.12 GiB
Duration : 1 h 29 min
Overall bit rate mode : Variable
Overall bit rate : 5 001 kb/s
Movie name : [MINI-HD]_The.Road.to.El.Dorado.2000.720p.BrRip.AC3.x264.One2loadup.com
Encoded date : UTC 2012-05-02 00:19:30
Writing application : mkvmerge v3.4.0 (‘Rapunzel’) built on May 15 2010 09:38:20
Writing library : libebml v0.8.0 + libmatroska v0.9.0

Video
ID : 1
Format : AVC
Format/Info : Advanced Video Codec
Format profile : [email protected]
Format settings : CABAC / 16 Ref Frames
Format settings, CABAC : Yes
Format settings, ReFrames : 16 frames
Codec ID : V_MPEG4/ISO/AVC
Duration : 1 h 29 min
Bit rate mode : Variable
Bit rate : 4 227 kb/s
Maximum bit rate : 300 Mb/s
Width : 1 280 pixels
Height : 720 pixels
Display aspect ratio : 16:9
Frame rate mode : Constant
Frame rate : 23.976 (24000/1001) FPS
Color space : YUV
Chroma subsampling : 4:2:0
Bit depth : 8 bits
Scan type : Progressive
Bits/(Pixel*Frame) : 0.191
Stream size : 2.58 GiB (83%)
Title : [MINI-HD]_The.Road.to.El.Dorado.2000.720p.BrRip.AC3.x264.One2loadup.com
Writing library : x264 core 120 r2120 0c7dab9
Encoding settings : cabac=1 / ref=16 / deblock=1:0:0 / analyse=0x3:0x133 / me=umh / subme=10 / psy=1 / psy_rd=1.00:0.00 / mixed_ref=1 / me_range=24 / chroma_me=1 / trellis=2 / 8x8dct=1 / cqm=0 / deadzone=21,11 / fast_pskip=1 / chroma_qp_offset=-2 / threads=9 / sliced_threads=0 / nr=0 / decimate=1 / interlaced=0 / bluray_compat=0 / constrained_intra=0 / bframes=8 / b_pyramid=0 / b_adapt=2 / b_bias=0 / direct=3 / weightb=1 / open_gop=0 / weightp=2 / keyint=240 / keyint_min=24 / scenecut=40 / intra_refresh=0 / rc_lookahead=60 / rc=2pass / mbtree=1 / bitrate=4227 / ratetol=1.0 / qcomp=0.60 / qpmin=0 / qpmax=69 / qpstep=4 / cplxblur=20.0 / qblur=0.5 / vbv_maxrate=300000 / vbv_bufsize=300000 / nal_hrd=vbr / ip_ratio=1.40 / aq=1:1.00
Language : English
Default : Yes
Forced : No

Audio #1
ID : 2
Format : AC-3
Format/Info : Audio Coding 3
Commercial name : Dolby Digital
Codec ID : A_AC3
Duration : 1 h 29 min
Bit rate mode : Constant
Bit rate : 384 kb/s
Channel(s) : 2 channels
Channel layout : L R
Sampling rate : 48.0 kHz
Frame rate : 31.250 FPS (1536 SPF)
Bit depth : 16 bits
Compression mode : Lossy
Stream size : 246 MiB (8%)
Title : dvd-master
Language : Thai
Service kind : Complete Main
Default : Yes
Forced : No

Audio #2
ID : 3
Format : AC-3
Format/Info : Audio Coding 3
Commercial name : Dolby Digital
Codec ID : A_AC3
Duration : 1 h 29 min
Bit rate mode : Constant
Bit rate : 384 kb/s
Channel(s) : 6 channels
Channel layout : L R C LFE Ls Rs
Sampling rate : 48.0 kHz
Frame rate : 31.250 FPS (1536 SPF)
Bit depth : 16 bits
Compression mode : Lossy
Stream size : 246 MiB (8%)
Title : dvd-master
Language : English
Service kind : Complete Main
Default : No
Forced : No

Text #1
ID : 4
Format : VobSub
Muxing mode : zlib
Codec ID : S_VOBSUB
Codec ID/Info : Picture based subtitle format used on DVDs
Language : Thai
Default : No
Forced : No

Text #2
ID : 5
Format : VobSub
Muxing mode : zlib
Codec ID : S_VOBSUB
Codec ID/Info : Picture based subtitle format used on DVDs
Language : English
Default : No
Forced : No

DOWNLOAD


PART01 |||| PART02 |||| PART03 |||| PART04

PART01 |||| PART02 |||| PART03 |||| PART04

PART01 |||| PART02 |||| PART03 |||| PART04

PART01 |||| PART02 |||| PART03 |||| PART04

PART01 |||| PART02 |||| PART03 |||| PART04



แจ้งหนังเสีย หรือโหลดไม่ได้ ทั้งลิ้งฟรีและ vip สามารถกดที่รูปด้านบนนี้ได้เลย

: Disable Comments
%d bloggers like this: