[Mini-HD] The Protector (2005) ต้มยำกุ้ง ภาค 1 [720p] [พากย์ไทย 5.1] [บรรยายอังกฤษ] [เสียงไทย + ซับอังกฤษ] [PANDAFILE]

6

โหลดหนัง The Protector (2005) ต้มยำกุ้ง ภาค 1

The Protector | September 8, 2006 (United States) Summary: A young fighter named Kham must go to Australia to retrieve his stolen elephant. With the help of a Thai-born Australian detective, Kham must take on all comers, including a gang led by an e... Read all
Countries: Thailand, United States, Hong Kong, FranceLanguages: Thai, English, Mandarin, Vietnamese

เรื่องย่อ The Protector (2005) ต้มยำกุ้ง ภาค 1

ระเบิดความมันส์ในภาพยนตร์แอ็คชั่นสุดอลังการ ที่กวาดรายได้ทั่วโลกกว่า 1,000 ล้านบาท! เรื่องราวของ ขาม (จา พนม ยีรัมย์) เด็กหนุ่มบ้านป่าที่ชีวิตต้องพลิกผันข้ามน้ำข้ามทะเลไปยังออสเตรเลียเพื่อช่วยพ่อใหญ่ และ ขอน ช้างพลายสองพ่อลูกที่ถูกลักพาไปขายในต่างแดน ด้วยความช่วยเหลือจาก จ่ามาร์ค (หม่ำ จ๊กมก) และ ปลา (ตั๊ก บงกช คงมาลัย) ทำให้พบเบาะแสที่ร้าน ต้มยำกุ้ง ที่เบื้องหลังคือธุรกิจค้าสัตว์ผิดกฎหมาย เมื่อชีวิตสัตว์มากมายต้องถูกพรากอย่างทารุณ กระตุ้นแรงโกรธแค้นของเขาให้ลุกโชนดั่งเปลวเพลิง ถึงเวลาที่เลือดเข้าตาต้องเดินหน้าสู้ตาย ด้วยวิถีการต่อสู้ที่ถูกฝังอยู่ในสายเลือด มวยคชสาร การต่อสู้มือเปล่าแบบโบราณ ที่จะกลายเป็นตำนานตราบเท่าปัจจุบัน!!

Complete name : [MINI-HD]_The.Protecto.2005.720p.BluRay.AC3.x264.One2loadup.com.mkv
Format : Matroska
Format version : Version 4 / Version 2
File size : 2.37 GiB
Duration : 1 h 50 min
Overall bit rate : 3 073 kb/s
Movie name : [MINI-HD]_The.Protecto.2005.720p.BluRay.AC3.x264.One2loadup.com
Encoded date : UTC 2013-05-08 04:09:34
Writing application : mkvmerge v6.2.0 (‘Promised Land’) built on Apr 28 2013 12:22:01
Writing library : libebml v1.3.0 + libmatroska v1.4.0

Video
ID : 1
Format : AVC
Format/Info : Advanced Video Codec
Format profile : [email protected]
Format settings : CABAC / 8 Ref Frames
Format settings, CABAC : Yes
Format settings, ReFrames : 8 frames
Codec ID : V_MPEG4/ISO/AVC
Duration : 1 h 50 min
Bit rate : 2 687 kb/s
Width : 1 280 pixels
Height : 720 pixels
Display aspect ratio : 16:9
Frame rate mode : Constant
Frame rate : 23.976 FPS
Color space : YUV
Chroma subsampling : 4:2:0
Bit depth : 8 bits
Scan type : Progressive
Bits/(Pixel*Frame) : 0.122
Stream size : 2.03 GiB (86%)
Title : [MINI-HD]_The.Protecto.2005.720p.BluRay.AC3.x264.One2loadup.com
Writing library : x264 core 100 r1659 57b2e56
Encoding settings : cabac=1 / ref=8 / deblock=1:-3:-3 / analyse=0x3:0x113 / me=umh / subme=9 / psy=1 / psy_rd=1.00:0.00 / mixed_ref=1 / me_range=32 / chroma_me=1 / trellis=2 / 8x8dct=1 / cqm=2 / deadzone=21,11 / fast_pskip=1 / chroma_qp_offset=-2 / threads=12 / sliced_threads=0 / nr=0 / decimate=1 / interlaced=0 / constrained_intra=0 / bframes=4 / b_pyramid=2 / b_adapt=2 / b_bias=0 / direct=3 / weightb=1 / open_gop=0 / weightp=2 / keyint=250 / keyint_min=25 / scenecut=40 / intra_refresh=0 / rc_lookahead=40 / rc=2pass / mbtree=1 / bitrate=2687 / ratetol=1.0 / qcomp=0.60 / qpmin=10 / qpmax=51 / qpstep=4 / cplxblur=20.0 / qblur=0.5 / ip_ratio=1.40 / aq=1:1.00
Language : Thai
Default : Yes
Forced : No

Audio
ID : 2
Format : AC-3
Format/Info : Audio Coding 3
Codec ID : A_AC3
Duration : 1 h 50 min
Bit rate mode : Constant
Bit rate : 384 kb/s
Channel(s) : 6 channels
Channel positions : Front: L C R, Side: L R, LFE
Sampling rate : 48.0 kHz
Frame rate : 31.250 FPS (1536 SPF)
Bit depth : 16 bits
Compression mode : Lossy
Stream size : 304 MiB (12%)
Title : Thai AC3 5.1 at 384Kbps
Language : Thai
Service kind : Complete Main
Default : Yes
Forced : No

Text
ID : 3
Format : UTF-8
Codec ID : S_TEXT/UTF8
Codec ID/Info : UTF-8 Plain Text
Title : English SRT
Language : English
Default : Yes
Forced : No

DOWNLOAD


PART01 |||| PART02 |||| PART03

PART01 |||| PART02 |||| PART03

PART01 |||| PART02 |||| PART03

PART01 |||| PART02 |||| PART0

PART01 |||| PART02 |||| PART03


6 Comments
  1. Narabodee Oat says

    ไฟล์เสียหมดเลยครับ

    1. Admin
      Admin says

      แก้ไขเรียบร้อยฮ๊ะ

  2. Narabodee Oat says

    มีซับไทยมั้ยครับ

    1. Admin
      Admin says

      ชื่อเรื่องบอกแล้วนะฮ๊ะ ปกติ หนังไทย จะไม่มีซับไทย ฮ๊ะ

  3. Plan Blue
    Plan Blue says

    ยังไม่ได้อัพ Zolo

    1. Admin
      Admin says

      แก้ไขเรียบร้อยฮ๊ะ

Leave A Reply

อีเมล์ของคุณจะไม่แสดงให้เห็น Your email address will not be published.

%d bloggers like this: