[MINI-HD] The Protector (1985) กูกู๋ปืนเค็ม [720p] [พากย์ไทย 5.1] [ภาพแบบ DVD] [ไม่มีบรรยาย] [เสียงไทย] [DVDRip] [OPENLOAD]

0

โหลดหนัง The Protector (1985) กูกู๋ปืนเค็ม

The Protector (1985) 1h 31min | Action, Crime, Thriller | 6 March 1986 (Netherlands) Summary: Two New York City cops, Billy Wong and Danny Garoni, head to Hong Kong after the daughter of a rich businessman is kidnapped by the drug lord, Mr. Ko.
Countries: Hong Kong, USALanguages: English, Cantonese

เรื่องย่อ The Protector (1985) กูกู๋ปืนเค็ม

บิล ลี่และ.แกรี่ถูกส่งตัวไปฮ่องกงเพื่อที่จะช่วยลอร่าลู กสาวซาฟีโร่ ซึ่งถูกลักพาตัวมาจากงานเปิดตัวเครื่องเพชร พวกเขาจะต้องตามหาหลี่ซิงเพื่อจะรู้เบาะแสว่าใครเป็น คนลักพาตัวไป หลี่ซิง ช่วยเหลือบิลลี่และ.แกรี่จึงถูกฆ่าตายโดยเกาเหว่ย นักค้ายาเสพติดรายใหญ่ และ.เป็นคนที่จับตัวลอร่าไป บิลลี่และ.แกรี่ได้รู้แหล่งโรงงานผลิตเฮโรอีน ซึ่งเป็นที่ที่ลอร่าถูกจับตัวไว้ พวกเขาจึงไม่รอช้าที่จะทลายมัน

Complete name : [MINI-HD]_The.Protector.1985.720p.DVDRip.AC3.One2loadup.com.mkv
Format : Matroska
Format version : Version 2
File size : 3.69 GiB
Duration : 1 h 31 min
Overall bit rate mode : Variable
Overall bit rate : 5 771 kb/s
Movie name : [MINI-HD]_The.Protector.1985.720p.DVDRip.AC3.One2loadup.com

Video
ID : 1
Format : MPEG Video
Format version : Version 2
Format profile : [email protected]
Format settings : CustomMatrix / BVOP
Format settings, BVOP : Yes
Format settings, Matrix : Custom
Format settings, GOP : M=3, N=16
Format settings, picture st : Frame
Codec ID : V_MPEG2
Codec ID/Info : MPEG 1 or 2 Video
Duration : 1 h 31 min
Bit rate mode : Variable
Bit rate : 5 318 kb/s
Maximum bit rate : 8 000 kb/s
Width : 720 pixels
Height : 480 pixels
Display aspect ratio : 4:3
Frame rate mode : Constant
Frame rate : 29.970 (30000/1001) FPS
Standard : NTSC
Color space : YUV
Chroma subsampling : 4:2:0
Bit depth : 8 bits
Scan type : Interlaced
Scan order : Top Field First
Compression mode : Lossy
Bits/(Pixel*Frame) : 0.513
Time code of first frame : 00:00:00:00
Time code source : Group of pictures header
GOP, Open/Closed : Closed
Stream size : 3.40 GiB (92%)
Language : English
Default : No
Forced : No

Audio
ID : 2
Format : AC-3
Format/Info : Audio Coding 3
Commercial name : Dolby Digital
Codec ID : A_AC3
Duration : 1 h 31 min
Bit rate mode : Constant
Bit rate : 448 kb/s
Channel(s) : 6 channels
Channel layout : L R C LFE Ls Rs
Sampling rate : 48.0 kHz
Frame rate : 31.250 FPS (1536 SPF)
Bit depth : 16 bits
Compression mode : Lossy
Stream size : 293 MiB (8%)
Title : Surround 5.1
Language : Thai
Service kind : Complete Main
Default : Yes
Forced : No

Menu
00:00:00.000 : en:Chapter 01
00:07:15.334 : en:Chapter 02
00:14:53.626 : en:Chapter 03
00:22:58.377 : en:Chapter 04
00:30:19.017 : en:Chapter 05
00:37:46.831 : en:Chapter 06
00:44:47.217 : en:Chapter 07
00:52:43.693 : en:Chapter 08
01:00:26.022 : en:Chapter 09
01:07:54.036 : en:Chapter 10
01:14:40.542 : en:Chapter 11
01:22:35.750 : en:Chapter 12

DOWNLOAD


PART01 |||| PART02 |||| PART03 |||| PART04

PART01 |||| PART02 |||| PART03 |||| PART04

PART01 |||| PART02 |||| PART03 |||| PART04

PART01 |||| PART02 |||| PART03 |||| PART04


Leave A Reply

Your email address will not be published.

%d bloggers like this: