[MINI-HD] The Mummy: Tomb of the Dragon Emperor (2008) เดอะมัมมี่ 3 คืนชีพจักรพรรดิมังกร [1080p] [พากย์ไทย 5.1 + เสียงอังกฤษ DTS] [บรรยายไทย + อังกฤษ] [เสียงไทย + ซับไทย] [DOSYAUPLOAD]

0

โหลดหนัง The Mummy: Tomb of the Dragon Emperor (2008) เดอะมัมมี่ 3 คืนชีพจักรพรรดิมังกร

The Mummy: Tomb of the Dragon Emperor (2008) 1h 52min | Action, Adventure, Fantasy | 1 August 2008 (USA) Summary: In the Far East, Alex O'Connell, the son of famed mummy fighters Rick and Evy O'Connell, unearths the mummy of the first Emperor of Qin -- a shape-shifting entity cursed by a witch centuries ago.
Countries: USA, Germany, China, CanadaLanguages: English, Mandarin, Sanskrit

เรื่องย่อ The Mummy: Tomb of the Dragon Emperor (2008) เดอะมัมมี่ 3 คืนชีพจักรพรรดิมังกร

จักรพรรดิมังกรจิตใจอำมหิตของแผ่นดินจีน พร้อมนักรบจำนวน 10,000 นาย ถูกฝังลืมเป็นเวลาชั่วกัปชั่วกัลป์ให้กลายเป็นกองทัพดินเผาที่ซ่อนตัวอยู่ในสุสาน ภายใต้คำสาปของซิหยวน (มิเชลล์ โหย่ว) แต่เมื่ออเล็กซ์ นักผจญภัยหนุ่มผู้เชื่อมั่นในตัวเอง เกิดไปปลุกจักรพรรดิมังกรให้ฟื้นตื่นจากการหลับใหลชั่วนิรันดร์ นักโบราณคดีหนุ่มต้องขอความช่วยเหลือจากคนกลุ่มเดียวที่รู้ดีกว่าเขาว่าจะจัดการกับมัมมี่ที่ฆ่าไม่ตายได้อย่างไร คนกลุ่มนั้นก็คือริค โอคอนเนล กับเอเวลีน พ่อแม่ของเขาเอง (เบรนดอน เฟรเซอร์, มาเรีย เบลโล่)

Complete name : [MINI-HD]_The.Mummy.Tomb.of.the.Dragon.Emperor.2008.1080p.BrRip.DTS.x264.One2loadup.com.mkv
Format : Matroska
Format version : Version 4
File size : 4.14 GiB
Duration : 1 h 51 min
Overall bit rate : 5 302 kb/s
Movie name : [MINI-HD]_The.Mummy.Tomb.of.the.Dragon.Emperor.2008.1080p.BrRip.DTS.x264.One2loadup.com
Encoded date : UTC 2019-01-15 06:38:45
Writing application : mkvmerge v30.1.0 (‘Forever And More’) 64-bit
Writing library : libebml v1.3.6 + libmatroska v1.4.9

Video
ID : 1
Format : AVC
Format/Info : Advanced Video Codec
Format profile : [email protected]
Format settings : CABAC / 4 Ref Frames
Format settings, CABAC : Yes
Format settings, ReFrames : 4 frames
Codec ID : V_MPEG4/ISO/AVC
Duration : 1 h 51 min
Bit rate : 4 084 kb/s
Width : 1 920 pixels
Height : 800 pixels
Display aspect ratio : 2.40:1
Frame rate mode : Constant
Frame rate : 23.976 (24000/1001) FPS
Color space : YUV
Chroma subsampling : 4:2:0
Bit depth : 8 bits
Scan type : Progressive
Bits/(Pixel*Frame) : 0.111
Stream size : 3.18 GiB (77%)
Title : [MINI-HD]_The.Mummy.Tomb.of.the.Dragon.Emperor.2008.1080p.BrRip.DTS.x264.One2loadup.com
Writing library : x264 core 142 r2431 ac76440
Encoding settings : cabac=1 / ref=4 / deblock=1:-2:-1 / analyse=0x3:0x113 / me=hex / subme=7 / psy=1 / psy_rd=1.00:0.00 / mixed_ref=1 / me_range=16 / chroma_me=1 / trellis=1 / 8x8dct=1 / cqm=0 / deadzone=21,11 / fast_pskip=1 / chroma_qp_offset=-2 / threads=12 / lookahead_threads=2 / sliced_threads=0 / nr=0 / decimate=1 / interlaced=0 / bluray_compat=0 / constrained_intra=0 / bframes=3 / b_pyramid=2 / b_adapt=1 / b_bias=0 / direct=1 / weightb=1 / open_gop=0 / weightp=2 / keyint=240 / keyint_min=23 / scenecut=40 / intra_refresh=0 / rc_lookahead=40 / rc=2pass / mbtree=1 / bitrate=4084 / ratetol=1.0 / qcomp=0.60 / qpmin=0 / qpmax=69 / qpstep=4 / cplxblur=20.0 / qblur=0.5 / vbv_maxrate=62500 / vbv_bufsize=78125 / nal_hrd=none / filler=0 / ip_ratio=1.40 / aq=1:1.00
Language : English
Default : Yes
Forced : No

Audio #1
ID : 2
Format : DTS
Format/Info : Digital Theater Systems
Codec ID : A_DTS
Duration : 1 h 51 min
Bit rate mode : Constant
Bit rate : 755 kb/s
Channel(s) : 6 channels
Channel layout : C L R Ls Rs LFE
Sampling rate : 48.0 kHz
Frame rate : 93.750 FPS (512 SPF)
Bit depth : 24 bits
Compression mode : Lossy
Stream size : 603 MiB (14%)
Title : DTS ENG
Language : English
Default : Yes
Forced : No

Audio #2
ID : 3
Format : AC-3
Format/Info : Audio Coding 3
Commercial name : Dolby Digital
Codec ID : A_AC3
Duration : 1 h 51 min
Bit rate mode : Constant
Bit rate : 448 kb/s
Channel(s) : 6 channels
Channel layout : L R C LFE Ls Rs
Sampling rate : 48.0 kHz
Frame rate : 31.250 FPS (1536 SPF)
Bit depth : 16 bits
Compression mode : Lossy
Stream size : 358 MiB (8%)
Title : AC-3 THAI
Language : Thai
Service kind : Complete Main
Default : No
Forced : No

Text #1
ID : 4
Format : PGS
Muxing mode : zlib
Codec ID : S_HDMV/PGS
Codec ID/Info : Picture based subtitle format used on BDs/HD-DVDs
Duration : 1 h 40 min
Bit rate : 31.2 kb/s
Count of elements : 2154
Stream size : 22.5 MiB (1%)
Title : PGS ENG
Language : English
Default : No
Forced : No

Text #2
ID : 5
Format : PGS
Muxing mode : zlib
Codec ID : S_HDMV/PGS
Codec ID/Info : Picture based subtitle format used on BDs/HD-DVDs
Duration : 1 h 50 min
Bit rate : 22.7 kb/s
Count of elements : 1844
Stream size : 18.0 MiB (0%)
Title : PGS THAI
Language : Thai
Default : Yes
Forced : No

DOWNLOAD


PART01 |||| PART02 |||| PART03 |||| PART04 |||| PART05

PART01 |||| PART02 |||| PART03 |||| PART04 |||| PART05

PART01 |||| PART02 |||| PART03 |||| PART04 |||| PART05

PART01 |||| PART02 |||| PART03 |||| PART04 |||| PART05

PART01 |||| PART02 |||| PART03 |||| PART04 |||| PART05



แจ้งหนังเสีย หรือโหลดไม่ได้ ทั้งลิ้งฟรีและ vip สามารถกดที่รูปด้านบนนี้ได้เลย

: Disable Comments
%d bloggers like this: