[MINI-HD] The Mummy Returns (2001) ฟื้นชีพกองทัพมัมมี่ล้างโลก [1080p] [พากย์ไทย 5.1 + เสียงอังกฤษ DTS] [บรรยายไทย + อังกฤษ] [เสียงไทย + ซับไทย] [DOSYAUPLOAD]

0

โหลดหนัง The Mummy Returns (2001) ฟื้นชีพกองทัพมัมมี่ล้างโลก

The Mummy Returns (2001) 2h 10min | Action, Adventure, Fantasy | 4 May 2001 (USA) Summary: The mummified body of Imhotep is shipped to a museum in London, where he once again wakes and begins his campaign of rage and terror.
Countries: USALanguages: English, Arabic

เรื่องย่อ The Mummy Returns (2001) ฟื้นชีพกองทัพมัมมี่ล้างโลก

ปี 1935 สิบปีหลังจากการเผชิญหน้าอันน่าสะพรึงกลัว กับนักบวชอียิปต์อิมโฮเทพที่ถูกจับทำมัมมีขณะนี้ ริค โอคอนเนลล์ (เบรนแดน เฟรเซอร์) และ เอเวอลีน (ราเชล ไวซ์) แต่งงานกัน มีลูกชายวัย 9 ขวบชื่อ อเล็กซ์ (เฟร็ดดี้ โบธ) เป็นลูกไม้ที่หล่นไม่ไกลต้น เขาได้รับนิสัยรักสนุกและชอบผจญภัยจากพ่อ และได้รับความหลงใหลอารยธรรมโบราณจากผู้เป็นแม่ยังมีลุงโจนาธาน (จอห์น ฮันนาห์) ที่คอยส่งเสริมจินตนาการอันกระตือรือร้นของหนุ่มน้อยอีกด้วยหลายไมล์จากบ้านที่ทันสมัยในลอนดอน ภายใต้ทรายของทะเลทรายซาฮาร่า เมล็ดแห่งฝันร้ายกำลังเพาะตัวขึ้นอีกครั้งกลุ่มลึกลับอันโหดเหี้ยมที่แสวงหาอำนาจในยุคต่อมา ได้แก่ อิมโฮเทพ (อาร์โนลด์ วอสลู) ผู้คืนชีพ เป็นสิ่งเดียวที่มีกำลังมากพอที่จะทำลายราชาแมงป่อง จึงต้องมีการปลดปล่อยมรดกสยองขวัญอายุ 3,000 ปี ที่มาพร้อมกับความแค้นในร่างของนักบวชอียิปต์ ซึ่งถูกตัดสินให้ตายทั้งเป็นตลอดกาลแต่ครั้งนี้ ด้วยความช่วยเหลือของปีศาจ ล็อค-นาห์ (แอดีเวล)และ มีลา (แพ็ททริเซีย เวลาเควซ) ผู้จิตใจงดงาม ซากศพที่แข็งเป็นหินของอิมโฮเทพ เริ่มก่อตัวอีกครั้ง ณ กลางพิพิธภัณฑ์แห่งอังกฤษที่ลอนดอนโดยความช่วยเหลือของผู้ดูแลพิพิธภัณฑ์ (อลัน อาร์มสตรอง) ทางด้าน อาร์เดธ เบย์ (โอเด็ด เฟหร์) ผู้นำกองทัพแห่งเม็ดจัยสัญญาว่าจะทำทุกวิถีทางที่ทำได้ เพื่อหยุดไม่ให้ปีศาจนั้นกลับมาที่โลกนี้อีกอิมโฮเทพตั้งใจที่จะทำให้ตัวเองเป็นอมตะแต่อำนาจอีกฝ่ายหนึ่งก็ถูกปลดปล่อยสู่โลกด้วยเช่นกัน มีคนคนหนึ่งเกิดขึ้น จากพิธีกรรมของศาสตร์มืดแห่งอียิปต์โบราณและมีอำนาจมากยิ่งกว่าอิมโฮเทพ นักรบที่ดุร้าย ซึ่งรู้จักกันในนาม ราชาแมงป่อง หรือ The Scorpion King (The Rock)ผู้ทำข้อตกลงขายวิญญาณให้กับเทพเจ้าอนูบิสผู้ยิ่งใหญ่ เพื่อให้ได้ชัยชนะในการรบครั้งสุดท้าย แต่แล้วกลับทรยศและถูกสาปชั่วนิรันดร์เมื่อหกพันปีที่แล้ว ขณะนี้เป็นเวลาสมควรที่นักรบนี้จะตื่นขึ้น และยกกองทัพแห่งอนูบิสเพื่อกวาดล้างโลกแห่งอารยธรรม เมื่ออำนาจทั้งสองเผชิญหน้ากัน โชคชะตาของโลกนี้ก็ถูกแขวนอยู่บนเส้นด้ายอเล็กซ์ ถูกลักพาตัวไป เพราะเขาสวมสร้อยคอของอนูบิส ซึ่งเป็นที่ต้องการของเหล่าร้าย เพราะสามารถนำไปปลดปล่อยมัมมี่เพื่อที่จะเอาชนะราชาแมงป่อง และครองโลกได้สำเร็จ สองสามีภรรยาจึงต้องเดินทางข้ามทะเลทรายซาฮาราโดยติดตามร่องรอยที่อเล็กซ์ทิ้งไว้อย่างฉลาด ไปยังโอเอซิสแห่งอามสเชียร์ ซึ่งเป็นที่ฝังตัวของราชาแมงป่องภายใต้ปิรามิดทองคำ เพื่อช่วยชีวิตลูกชาย และช่วยกู้โลกนี้ไว้จากความชั่วร้ายที่สุดพรรณา ก่อนที่ทุกอย่างจะสายเกินไป!!!

Complete name : [MINI-HD]_The.Mummy.Returns.2001.1080p.BrRip.DTS.x264.One2loadup.com.mkv
Format : Matroska
Format version : Version 4
File size : 4.29 GiB
Duration : 2 h 9 min
Overall bit rate : 4 743 kb/s
Movie name : [MINI-HD]_The.Mummy.Returns.2001.1080p.BrRip.DTS.x264.One2loadup.com
Encoded date : UTC 2019-01-15 07:05:47
Writing application : mkvmerge v30.1.0 (‘Forever And More’) 64-bit
Writing library : libebml v1.3.6 + libmatroska v1.4.9

Video
ID : 1
Format : AVC
Format/Info : Advanced Video Codec
Format profile : [email protected]
Format settings : CABAC / 4 Ref Frames
Format settings, CABAC : Yes
Format settings, ReFrames : 4 frames
Codec ID : V_MPEG4/ISO/AVC
Duration : 2 h 9 min
Bit rate : 3 527 kb/s
Width : 1 920 pixels
Height : 816 pixels
Display aspect ratio : 2.35:1
Frame rate mode : Constant
Frame rate : 23.976 (24000/1001) FPS
Color space : YUV
Chroma subsampling : 4:2:0
Bit depth : 8 bits
Scan type : Progressive
Bits/(Pixel*Frame) : 0.094
Stream size : 3.19 GiB (74%)
Title : [MINI-HD]_The.Mummy.Returns.2001.1080p.BrRip.DTS.x264.One2loadup.com
Writing library : x264 core 142 r2431 ac76440
Encoding settings : cabac=1 / ref=4 / deblock=1:-2:-1 / analyse=0x3:0x113 / me=hex / subme=7 / psy=1 / psy_rd=1.00:0.00 / mixed_ref=1 / me_range=16 / chroma_me=1 / trellis=1 / 8x8dct=1 / cqm=0 / deadzone=21,11 / fast_pskip=1 / chroma_qp_offset=-2 / threads=12 / lookahead_threads=2 / sliced_threads=0 / nr=0 / decimate=1 / interlaced=0 / bluray_compat=0 / constrained_intra=0 / bframes=3 / b_pyramid=2 / b_adapt=1 / b_bias=0 / direct=1 / weightb=1 / open_gop=0 / weightp=2 / keyint=240 / keyint_min=23 / scenecut=40 / intra_refresh=0 / rc_lookahead=40 / rc=2pass / mbtree=1 / bitrate=3527 / ratetol=1.0 / qcomp=0.60 / qpmin=0 / qpmax=69 / qpstep=4 / cplxblur=20.0 / qblur=0.5 / vbv_maxrate=62500 / vbv_bufsize=78125 / nal_hrd=none / filler=0 / ip_ratio=1.40 / aq=1:1.00
Language : English
Default : Yes
Forced : No

Audio #1
ID : 2
Format : DTS
Format/Info : Digital Theater Systems
Codec ID : A_DTS
Duration : 2 h 9 min
Bit rate mode : Constant
Bit rate : 755 kb/s
Channel(s) : 6 channels
Channel layout : C L R Ls Rs LFE
Sampling rate : 48.0 kHz
Frame rate : 93.750 FPS (512 SPF)
Bit depth : 24 bits
Compression mode : Lossy
Stream size : 699 MiB (16%)
Title : DTS ENG
Language : English
Default : Yes
Forced : No

Audio #2
ID : 3
Format : AC-3
Format/Info : Audio Coding 3
Commercial name : Dolby Digital
Codec ID : A_AC3
Duration : 2 h 9 min
Bit rate mode : Constant
Bit rate : 448 kb/s
Channel(s) : 6 channels
Channel layout : L R C LFE Ls Rs
Sampling rate : 48.0 kHz
Frame rate : 31.250 FPS (1536 SPF)
Bit depth : 16 bits
Compression mode : Lossy
Stream size : 415 MiB (9%)
Title : AC-3 THAI
Language : Thai
Service kind : Complete Main
Default : No
Forced : No

Text #1
ID : 4
Format : PGS
Muxing mode : zlib
Codec ID : S_HDMV/PGS
Codec ID/Info : Picture based subtitle format used on BDs/HD-DVDs
Duration : 2 h 6 min
Bit rate : 24.6 kb/s
Count of elements : 2333
Stream size : 22.3 MiB (1%)
Title : PGS ENG
Language : English
Default : No
Forced : No

Text #2
ID : 5
Format : PGS
Muxing mode : zlib
Codec ID : S_HDMV/PGS
Codec ID/Info : Picture based subtitle format used on BDs/HD-DVDs
Duration : 2 h 1 min
Bit rate : 16.1 kb/s
Count of elements : 1856
Stream size : 14.0 MiB (0%)
Title : PGS THAI
Language : Thai
Default : Yes
Forced : No

DOWNLOAD


PART01 |||| PART02 |||| PART03 |||| PART04 |||| PART05

PART01 |||| PART02 |||| PART03 |||| PART04 |||| PART05

PART01 |||| PART02 |||| PART03 |||| PART04 |||| PART05

PART01 |||| PART02 |||| PART03 |||| PART04 |||| PART05

PART01 |||| PART02 |||| PART03 |||| PART04 |||| PART05



แจ้งหนังเสีย หรือโหลดไม่ได้ ทั้งลิ้งฟรีและ vip สามารถกดที่รูปด้านบนนี้ได้เลย

: Disable Comments
%d bloggers like this: