[MINI-HD] The Mummy (1999) เดอะ มัมมี่ คืนชีพคำสาปนรกล้างโลก [1080p] [พากย์ไทย 5.1 + เสียงอังกฤษ DTS] [บรรยายไทย + อังกฤษ] [เสียงไทย + ซับไทย] [DOSYAUPLOAD]

0

โหลดหนัง The Mummy (1999) เดอะ มัมมี่ คืนชีพคำสาปนรกล้างโลก

The Mummy (1999) 2h 4min | Action, Adventure, Fantasy | 7 May 1999 (USA) Summary: At an archaeological dig in the ancient city of Hamunaptra, an American serving in the French Foreign Legion accidentally awakens a mummy who begins to wreak havoc as he searches for the reincarnation of his long-lost love.
Countries: USA, UK, MoroccoLanguages: English, Egyptian (Ancient), Arabic, Chinese, Hebrew, Hungarian

เรื่องย่อ The Mummy (1999) เดอะ มัมมี่ คืนชีพคำสาปนรกล้างโลก

หนังเกิดขึ้นในสมัยอียิปต์ปี 1290 ก่อนคริสศักราช เมื่อ นักบวชอิมโฮเทป(Imhotep) มีความสัมพันธ์ชู้สาวกับสนมอนัคซูนามุน ( Anck Su Namun)ของฟาโรห์เซติที่1 เมื่อความลับเปิดเผยทั้งสองจึงร่วมมือกันสังหารฟาโรห์ จากนั้นอนัคซูนามุนก็ฆ่าตัวตายโดยหวังไว้ว่าอิปโฮเทปจะชุบชีวิตนางคืน หลังจากการฟังศพของอนัคซูนามุน อิปโฮเทปก็ได้ขโมยศพของนางไป ทั้งเขาและลูกน้องนักบวชหนีข้ามทะเลทรายไปที่ฮามันพัตราและพวกเขาได้เริ่ม ต้นพิธีชุบชีวิตของนางอนัคซูนามุนแต่พวกเขาถูกทหารองค์รักษ์ของฟาโรห์เซติขัดขวางก่อน ที่พิธีจะเสร็จ และด้วยความผิดนักบวชและอิปโฮเทปก็ถูกทำให้กลายเป็นมัมมี่ทั้งเป็นและถูกสาปไม่ให้ไปผุดไปเกิด พร้อมฝังด้วงกินเนื้อ เขาถูกฝังในโลงหินใต้รูปปั้นของเทพอนูบิส การดูแลอยู่ภายใต้ทหารผู้มีเชื้อสายขององครักษ์ฟาโรห์เซติ แต่ถ้าอิมโฮเทปคืนชีพอีกครั้งจะทำให้เขาเป็นอมตะ และจะปลดปล่อยสิ่งชั่วร้ายออกมา ทำลายล้างโลก

ต่อมา ในปี1926 ที่ไคโร บรรณารักษ์และนักอียิปต์วิทยาชื่อ อีฟเวอรีน คาร์นาฮาน ( Evelyn Carnahan )ได้รับกุญแจและแผนที่เมืองที่สาบสูญจากพี่ชายของเธอ โจนาธาน ( Jonatan Carnahan) โดยเขาบอกว่าพบมันในเมืองทีปส์ หลัง จากนั้นทั้งสองก็พบว่าแผนที่นำทางไปสู่ฮามันพัตรา แล้วโจนาธานก็สารภาพว่าเขาขโมยมันมาจากทหารชาวอเมริกันนาม ริค โอคอนเนล (Rick O’Connell) ซึ่งตอนนี้อยู่ในคุก ริคบอกสองพี่น้องว่าเขารู้ทางไปเมืองนี้ ริคได้ต่อรองกับอีฟเวอรีนว่าถ้าเธอปล่อยเขาเป็นอิสระจากการถูกแขวนคอเขาจะพา พวกเธอไปที่นั่น ระหว่างทาง พวกเขาได้เจอกับกลุ่มนักล่าสมบัติที่นำโดยนักอียิปต์วิทยาชื่อ ดร.อลัน แชมเบอร์เลน และมีเบนี กาบอร์ อดีตทหารในหน่วยของริคเป็นไกด์ หลัง จากถึงฮามันพัตราไม่นาน ทั้งสองกลุ่มก็ถูกโจมตีโดยกลุ่มเม็จจัยที่นำโดยนักรบชื่อ อาร์เดธ เบย์ และเบย์ได้เตือนพวกเขาถึงความชั่วร้ายที่ถูกฝังอยู่ใต้นครทั้งสองกลุ่มไม่ ฟังคำเตือนของเบย์และสำรวจเมืองต่อไป อีฟเวอรีนอยากจะหาหนังสือแห่งอมันรา หนังสือทำจากทองแท้ที่เชื่อว่าสามารถดึงชีวิตออกจากร่างได้ แต่ดันมาเจอศพของอิปโฮเทปแทน ส่วนอีกทีมเจอกล่องที่มีหนังสือแห่งความตายสีดำพร้อมกับไหคาโนปิกที่บรรจุ เครื่องในของอนัคซูนามุน ที่แต่ละคนในทีมเอาไปเป็นสมบัติ

กลางดึก อีฟเวอรีนแอบเอาหนังสือแห่งความตายมาจากอีกกลุ่มและอ่านมัน ทำให้อิปโฮเทปฟื้นขึ้นมา แม้ว่าทั้งกลุ่มจะไปถึงไคโรแต่มัมมี่ก็ตามพวกเขาไป ฆ่าทีละคนเพื่อคืนร่างเดิม แต่เบนีรอดและเจออิปโฮเทป ด้วยความกลัวเขาจึงสาบานว่าจะช่วยอิปโฮเทปตามหานักล่าสมบัติที่เหลือและไหคา โนปิกที่ไคโร อีฟเวอรีนจึงเดาว่าถ้าหนังสือแห่งความตายทำให้อิปโฮเทปฟื้น ดังนั้นหนังสือแห่งอามันราน่าจะฆ่าเขาได้ แต่อิปโฮเทปได้เอาตัวอีฟเวอรีนไปเพื่อที่จะบูชายันเอาอนัคซูนามุนกลับมา นักบวชจึงเดินทางกลับฮามันพัตราโดยมีริคกับโจนาธานตามไป อีฟเวอรีนได้ถูกช่วยหลังจากการต่อสู้ระหว่างริคกับมัมมีของอิปโฮเทปและเธอก็ ได้อ่านหนังสือแห่งอามันรา อิปโฮเทปจึงไม่เป็นอมตะอีกต่อไปและริคได้สังหารเขา ร่างของอิปโฮเทปค่อยๆสลายไปพร้อมกับคำสาบานว่าจะล้างแค้น เบนีก็เกิดซุ่มซ่ามทำให้กับดักทำงานทำให้เขาถูกแมลงสาบกินพร้อมๆกับนครฮามัน พัตราที่พังทลายลงทรายไป ส่วนพวกที่เหลือก็หนีตายออกมาได้อย่างหวุดหวิดและขี่อุฐไปสู่ตะวันที่กำลัง ลับฟ้าพร้อมกับสมบัติ

Complete name : [MINI-HD]_The.Mummy.1999.1080p.BrRip.DTS.x264.One2loadup.com.mkv
Format : Matroska
Format version : Version 4
File size : 4.06 GiB
Duration : 2 h 4 min
Overall bit rate : 4 655 kb/s
Movie name : [MINI-HD]_The.Mummy.1999.1080p.BrRip.DTS.x264.One2loadup.com
Encoded date : UTC 2019-01-15 06:32:04
Writing application : mkvmerge v30.1.0 (‘Forever And More’) 64-bit
Writing library : libebml v1.3.6 + libmatroska v1.4.9

Video
ID : 1
Format : AVC
Format/Info : Advanced Video Codec
Format profile : [email protected]
Format settings : CABAC / 4 Ref Frames
Format settings, CABAC : Yes
Format settings, ReFrames : 4 frames
Codec ID : V_MPEG4/ISO/AVC
Duration : 2 h 4 min
Bit rate : 3 435 kb/s
Width : 1 920 pixels
Height : 812 pixels
Display aspect ratio : 2.35:1
Frame rate mode : Constant
Frame rate : 23.976 (24000/1001) FPS
Color space : YUV
Chroma subsampling : 4:2:0
Bit depth : 8 bits
Scan type : Progressive
Bits/(Pixel*Frame) : 0.092
Stream size : 2.99 GiB (74%)
Title : [MINI-HD]_The.Mummy.1999.1080p.BrRip.DTS.x264.One2loadup.com
Writing library : x264 core 142 r2431 ac76440
Encoding settings : cabac=1 / ref=4 / deblock=1:-2:-1 / analyse=0x3:0x113 / me=hex / subme=7 / psy=1 / psy_rd=1.00:0.00 / mixed_ref=1 / me_range=16 / chroma_me=1 / trellis=1 / 8x8dct=1 / cqm=0 / deadzone=21,11 / fast_pskip=1 / chroma_qp_offset=-2 / threads=12 / lookahead_threads=2 / sliced_threads=0 / nr=0 / decimate=1 / interlaced=0 / bluray_compat=0 / constrained_intra=0 / bframes=3 / b_pyramid=2 / b_adapt=1 / b_bias=0 / direct=1 / weightb=1 / open_gop=0 / weightp=2 / keyint=240 / keyint_min=23 / scenecut=40 / intra_refresh=0 / rc_lookahead=40 / rc=2pass / mbtree=1 / bitrate=3435 / ratetol=1.0 / qcomp=0.60 / qpmin=0 / qpmax=69 / qpstep=4 / cplxblur=20.0 / qblur=0.5 / vbv_maxrate=62500 / vbv_bufsize=78125 / nal_hrd=none / filler=0 / ip_ratio=1.40 / aq=1:1.00
Language : English
Default : Yes
Forced : No

Audio #1
ID : 2
Format : DTS
Format/Info : Digital Theater Systems
Codec ID : A_DTS
Duration : 2 h 4 min
Bit rate mode : Constant
Bit rate : 755 kb/s
Channel(s) : 6 channels
Channel layout : C L R Ls Rs LFE
Sampling rate : 48.0 kHz
Frame rate : 93.750 FPS (512 SPF)
Bit depth : 24 bits
Compression mode : Lossy
Stream size : 673 MiB (16%)
Title : DTS ENG
Language : English
Default : Yes
Forced : No

Audio #2
ID : 3
Format : AC-3
Format/Info : Audio Coding 3
Commercial name : Dolby Digital
Codec ID : A_AC3
Duration : 2 h 4 min
Bit rate mode : Constant
Bit rate : 448 kb/s
Channel(s) : 6 channels
Channel layout : L R C LFE Ls Rs
Sampling rate : 48.0 kHz
Frame rate : 31.250 FPS (1536 SPF)
Bit depth : 16 bits
Compression mode : Lossy
Stream size : 400 MiB (10%)
Title : AC-3 THAI
Language : Thai
Service kind : Complete Main
Default : No
Forced : No

Text #1
ID : 4
Format : PGS
Muxing mode : zlib
Codec ID : S_HDMV/PGS
Codec ID/Info : Picture based subtitle format used on BDs/HD-DVDs
Duration : 1 h 55 min
Bit rate : 20.9 kb/s
Count of elements : 2154
Stream size : 17.2 MiB (0%)
Title : PGS THAI
Language : Thai
Default : Yes
Forced : No

Text #2
ID : 5
Format : PGS
Muxing mode : zlib
Codec ID : S_HDMV/PGS
Codec ID/Info : Picture based subtitle format used on BDs/HD-DVDs
Duration : 1 h 55 min
Bit rate : 33.1 kb/s
Count of elements : 2727
Stream size : 27.5 MiB (1%)
Title : PGS ENG
Language : English
Default : No
Forced : No

DOWNLOAD


PART01 |||| PART02 |||| PART03 |||| PART04 |||| PART05

PART01 |||| PART02 |||| PART03 |||| PART04 |||| PART05

PART01 |||| PART02 |||| PART03 |||| PART04 |||| PART05

PART01 |||| PART02 |||| PART03 |||| PART04 |||| PART05

PART01 |||| PART02 |||| PART03 |||| PART04 |||| PART05



แจ้งหนังเสีย หรือโหลดไม่ได้ ทั้งลิ้งฟรีและ vip สามารถกดที่รูปด้านบนนี้ได้เลย

: Disable Comments
%d bloggers like this: