[MINI-HD] The Last Full Measure (2019) วีรบุรุษโลกไม่จำ [1080p] [พากย์ไทย 5.1 + เสียงอังกฤษ 5.1] [บรรยายไทยฝัง] [เสียงไทย + ซับไทยฝัง] [USERLOAD]

0

โหลดหนัง The Last Full Measure (2019) วีรบุรุษโลกไม่จำ

The Last Full Measure (2019) 116min | Drama, War | January 24, 2020 (United States) Summary: Thirty-four years after his death, Airman William H. Pitsenbarger, Jr. ("Pits") is awarded the nation's highest military honor, for his actions on the battlefield.
Countries: United StatesLanguages: English

เรื่องย่อ The Last Full Measure (2019) วีรบุรุษโลกไม่จำ

เรื่องราวเหตุการณ์จริงของ “วิลเลียม เอช. พิตเซนบาร์เกอร์” วีรบุรุษในสงครามเวียดนาม นายทหารผู้ได้รับเกียรติอันสูงสุดจากกองทัพสหรัฐจากการที่นายแพทย์สนามจากกองทัพอากาศนายนี้ได้สละชีพ ในการคุ้มกันเหล่าทหาร 60 นายให้สามารถหนีออกจากพื้นที่การต่อสู้ไปได้ด้วยเฮลิคอปเตอร์โดยต้องแลกมาด้วยชีวิตของเขานั่นเอง ซึ่งหนังจะเล่าเรื่องราว 30 ปีให้หลังที่ทางกองทัพต้องการมอบเหรียญกล้าหาญให้กับ เขาอย่างเป็นทางการโดยได้มอบหมายให้ทาง “สก็อตต์ ฮัฟฟ์แมน” (เซบาสเตียน สแตน) ทำการสืบสวนเหตุการณ์จริงที่เกิดขึ้นเพื่อยืนยันว่าเหตุการณ์ของวิลเลียม เอช. พิตเซนบาร์เกอร์นั้นเป็นเรื่องจริงก่อนที่เขาจะได้พบกับความจริงที่เกินกว่าจะคาดคิดไว้

Complete name : [MINI-HD]_The.Last.Full.Measure.2019.1080p.BluRay.AC3.x264.One2loadup.com.mkv
Format : Matroska
Format version : Version 4
File size : 4.68 GiB
Duration : 1 h 55 min
Overall bit rate mode : Constant
Overall bit rate : 5 817 kb/s
Movie name : [MINI-HD]_The.Last.Full.Measure.2019.1080p.BluRay.AC3.x264.One2loadup.com
Encoded date : UTC 2021-08-12 18:02:11
Writing application : mkvmerge v60.0.0 (‘Are We Copies?’) 64-bit
Writing library : libebml v1.4.2 + libmatroska v1.6.4
Cover : Yes
Attachments : cover

Video
ID : 1
Format : AVC
Format/Info : Advanced Video Codec
Format profile : [email protected]
Format settings : CABAC / 1 Ref Frames
Format settings, CABAC : Yes
Format settings, Reference : 1 frame
Format settings, GOP : M=1, N=25
Codec ID : V_MPEG4/ISO/AVC
Duration : 1 h 55 min
Bit rate mode : Constant
Bit rate : 5 434 kb/s
Width : 1 920 pixels
Height : 802 pixels
Display aspect ratio : 2.40:1
Frame rate mode : Constant
Frame rate : 29.970 (30000/1001) FPS
Color space : YUV
Chroma subsampling : 4:2:0
Bit depth : 8 bits
Scan type : Progressive
Bits/(Pixel*Frame) : 0.118
Stream size : 4.37 GiB (93%)
Title : [MINI-HD]_The.Last.Full.Measure.2019.1080p.BluRay.AC3.x264.One2loadup.com
Language : English
Default : Yes
Forced : No

Audio #1
ID : 2
Format : AC-3
Format/Info : Audio Coding 3
Commercial name : Dolby Digital
Codec ID : A_AC3
Duration : 1 h 55 min
Bit rate mode : Constant
Bit rate : 192 kb/s
Channel(s) : 6 channels
Channel layout : L R C LFE Ls Rs
Sampling rate : 44.1 kHz
Frame rate : 28.711 FPS (1536 SPF)
Compression mode : Lossy
Stream size : 158 MiB (3%)
Title : Th.5.1.AC3.192k
Language : Thai
Service kind : Complete Main
Default : Yes
Forced : No

Audio #2
ID : 3
Format : AC-3
Format/Info : Audio Coding 3
Commercial name : Dolby Digital
Codec ID : A_AC3
Duration : 1 h 55 min
Bit rate mode : Constant
Bit rate : 192 kb/s
Channel(s) : 6 channels
Channel layout : L R C LFE Ls Rs
Sampling rate : 44.1 kHz
Frame rate : 28.711 FPS (1536 SPF)
Compression mode : Lossy
Stream size : 158 MiB (3%)
Title : En.5.1.AC3.192k
Language : English
Service kind : Complete Main
Default : Yes
Forced : No

DOWNLOAD


PART01 |||| PART02 |||| PART03 |||| PART04 |||| PART05

PART01 |||| PART02 |||| PART03 |||| PART04 |||| PART05

PART01 |||| PART02 |||| PART03 |||| PART04 |||| PART05

PART01 |||| PART02 |||| PART03 |||| PART04 |||| PART05

PART01 |||| PART02 |||| PART03 |||| PART04 |||| PART05


Leave A Reply

อีเมล์ของคุณจะไม่แสดงให้เห็น Your email address will not be published.

%d bloggers like this: