[MINI-HD] The Iron Lady (2011) มาร์กาเร็ต แธตเชอร์…หญิงเหล็กพลิกแผ่นดิน [1080p] [พากย์ไทย 5.1 + เสียงอังกฤษ DTS] [บรรยายไทย+ อังกฤษ] [เสียงไทย+ ซับไทย] [PANDAFILE]

0

The Iron Lady (2011)

โหลดหนัง The Iron Lady (2011) มาร์กาเร็ต แธตเชอร์…หญิงเหล็กพลิกแผ่นดิน

Die Eiserne Lady (2011) 1h 45min | Biography, Drama | 1 March 2012 (Germany) Summary: An elderly Margaret Thatcher talks to the imagined presence of her recently deceased husband as she struggles to come to terms with his death while scenes from her past life, from girlhood to British prime minister, intervene.
Countries: UK, FranceLanguages: English

เรื่องย่อ The Iron Lady (2011) มาร์กาเร็ต แธตเชอร์…หญิงเหล็กพลิกแผ่นดิน

บอกเล่าเรื่องราวของผู้หญิงที่ชื่อ มาร์กาเรต แธตเชอร์ อดีตนายกรัฐมนตรีหญิงคนแรกของอังกฤษ และเป็นผู้หญิงคนแรกที่ครองตำแหน่งสำคัญของอังกฤษถึง 2 ตำแหน่งด้วยกันคือ ตำแหน่งนายกรัฐมนตรี และ ผู้นำพรรคอนุรักษ์นิยม โดยนางได้ครองตำแหน่งผู้นำประเทศถึง 3 วาระด้วยกัน หญิงผู้ซึ่งสามารถทำลายกำแพงแห่งเพศและชนชั้นจากลูกร้านขายของชำสู่ตำแหน่งผู้นำประเทศสหราชอาณาจักร และยังได้รับสมญานามว่า “หญิงเหล็ก (The Iron Lady)” โดยได้ Meryl Streep รับบทแสดงนำเป็นหญิงเหล็ก โดยในหนังได้นำเสนอชีวิตของเธอตั้งแต่เข้ามารับตำแหน่งผู้นำประเทศฝ่าฝันอุปสรรคจนได้อำนาจในการสั่งการรวมถึงเหตุการณ์ในสงครามหมู่เกาะฟอล์กแลนด์ จนถึงช่วงบั้นปลายชีวิตเธอที่คนเราหนีไม่พ้นสัจธรรมของชีวิตตัวเธอเมื่อแก่ชราต้องประสบกับภาพวันเก่าๆและภาพตัวสามีเธอผุดขึ้นมาหลอนจิตใจเธอ

Complete name : [MINI-HD]_The.Iron.Lady.2011.1080p.BrRip.DTS.x264.One2loadup.com.mkv
Format : Matroska
Format version : Version 4
File size : 4.43 GiB
Duration : 1 h 44 min
Overall bit rate : 6 045 kb/s
Movie name : [MINI-HD]_The.Iron.Lady.2011.1080p.BrRip.DTS.x264.One2loadup.com
Encoded date : UTC 2017-11-06 14:52:44
Writing application : mkvmerge v17.0.0 (‘Be Ur Friend’) 64-bit
Writing library : libebml v1.3.5 + libmatroska v1.4.8

Video
ID : 1
Format : AVC
Format/Info : Advanced Video Codec
Format profile : [email protected]
Format settings : CABAC / 4 Ref Frames
Format settings, CABAC : Yes
Format settings, ReFrames : 4 frames
Codec ID : V_MPEG4/ISO/AVC
Duration : 1 h 44 min
Bit rate : 4 000 kb/s
Width : 1 920 pixels
Height : 816 pixels
Display aspect ratio : 2.35:1
Frame rate mode : Constant
Frame rate : 23.976 (24000/1001) FPS
Color space : YUV
Chroma subsampling : 4:2:0
Bit depth : 8 bits
Scan type : Progressive
Bits/(Pixel*Frame) : 0.106
Stream size : 2.93 GiB (66%)
Title : [MINI-HD]_The.Iron.Lady.2011.1080p.BrRip.DTS.x264.One2loadup.com
Writing library : x264 core 120 r2164 da19765
Encoding settings : cabac=1 / ref=1 / deblock=1:0:0 / analyse=0x3:0x113 / me=hex / subme=7 / psy=1 / psy_rd=2.00:1.00 / mixed_ref=0 / me_range=16 / chroma_me=1 / trellis=2 / 8x8dct=1 / cqm=0 / deadzone=21,11 / fast_pskip=0 / chroma_qp_offset=-4 / threads=3 / sliced_threads=0 / nr=50 / decimate=1 / interlaced=0 / bluray_compat=0 / constrained_intra=0 / bframes=3 / b_pyramid=2 / b_adapt=1 / b_bias=0 / direct=3 / weightb=1 / open_gop=0 / weightp=2 / keyint=240 / keyint_min=23 / scenecut=40 / intra_refresh=0 / rc_lookahead=50 / rc=2pass / mbtree=1 / bitrate=4000 / ratetol=2.0 / qcomp=0.60 / qpmin=10 / qpmax=51 / qpstep=4 / cplxblur=20.0 / qblur=0.5 / ip_ratio=1.40 / aq=1:1.00
Language : English
Default : Yes
Forced : No

Audio #1
ID : 2
Format : AC-3
Format/Info : Audio Coding 3
Commercial name : Dolby Digital
Codec ID : A_AC3
Duration : 1 h 44 min
Bit rate mode : Constant
Bit rate : 448 kb/s
Channel(s) : 6 channels
Channel layout : L R C LFE Ls Rs
Sampling rate : 48.0 kHz
Frame rate : 31.250 FPS (1536 SPF)
Bit depth : 16 bits
Compression mode : Lossy
Stream size : 336 MiB (7%)
Title : [THAI AC3 FROM DVD MASTER]
Language : Thai
Service kind : Complete Main
Default : No
Forced : No

Audio #2
ID : 3
Format : DTS
Format/Info : Digital Theater Systems
Codec ID : A_DTS
Duration : 1 h 44 min
Bit rate mode : Constant
Bit rate : 1 509 kb/s
Channel(s) : 6 channels
Channel layout : C L R Ls Rs LFE
Sampling rate : 48.0 kHz
Frame rate : 93.750 FPS (512 SPF)
Bit depth : 24 bits
Compression mode : Lossy
Stream size : 1.11 GiB (25%)
Title : ENG DTS
Language : English
Default : Yes
Forced : No

Text #1
ID : 4
Format : VobSub
Muxing mode : zlib
Codec ID : S_VOBSUB
Codec ID/Info : Picture based subtitle format used on DVDs
Duration : 1 h 36 min
Bit rate : 2 957 b/s
Count of elements : 1333
Stream size : 2.04 MiB (0%)
Title : [SUB THAI FROM DVD MASTER]
Language : Thai
Default : Yes
Forced : No

Text #2
ID : 5
Format : VobSub
Muxing mode : zlib
Codec ID : S_VOBSUB
Codec ID/Info : Picture based subtitle format used on DVDs
Duration : 1 h 36 min
Bit rate : 2 957 b/s
Count of elements : 1333
Stream size : 2.04 MiB (0%)
Title : [SUB THAI FROM DVD MASTER] UNDER
Language : Thai
Default : No
Forced : No

Text #3
ID : 6
Format : VobSub
Muxing mode : zlib
Codec ID : S_VOBSUB
Codec ID/Info : Picture based subtitle format used on DVDs
Duration : 1 h 36 min
Bit rate : 9 582 b/s
Count of elements : 1333
Stream size : 6.61 MiB (0%)
Title : Thai 720p
Language : Thai
Default : No
Forced : No

Text #4
ID : 7
Format : VobSub
Muxing mode : zlib
Codec ID : S_VOBSUB
Codec ID/Info : Picture based subtitle format used on DVDs
Duration : 1 h 36 min
Bit rate : 13.4 kb/s
Count of elements : 1333
Stream size : 9.23 MiB (0%)
Title : Thai 1080p
Language : Thai
Default : No
Forced : No

Text #5
ID : 8
Format : VobSub
Muxing mode : zlib
Codec ID : S_VOBSUB
Codec ID/Info : Picture based subtitle format used on DVDs
Duration : 1 h 36 min
Bit rate : 13.4 kb/s
Count of elements : 1333
Stream size : 9.23 MiB (0%)
Title : Thai 1080p Low
Language : Thai
Default : No
Forced : No

Text #6
ID : 9
Format : PGS
Muxing mode : zlib
Codec ID : S_HDMV/PGS
Codec ID/Info : Picture based subtitle format used on BDs/HD-DVDs
Duration : 1 h 36 min
Bit rate : 32.5 kb/s
Count of elements : 2666
Stream size : 22.4 MiB (0%)
Title : Thai PGS 720p
Language : Thai
Default : No
Forced : No

Text #7
ID : 10
Format : PGS
Muxing mode : zlib
Codec ID : S_HDMV/PGS
Codec ID/Info : Picture based subtitle format used on BDs/HD-DVDs
Duration : 1 h 36 min
Bit rate : 42.0 kb/s
Count of elements : 2666
Stream size : 28.9 MiB (1%)
Title : Thai PGS 1080p
Language : Thai
Default : No
Forced : No

Text #8
ID : 11
Format : PGS
Muxing mode : zlib
Codec ID : S_HDMV/PGS
Codec ID/Info : Picture based subtitle format used on BDs/HD-DVDs
Duration : 1 h 36 min
Bit rate : 42.0 kb/s
Count of elements : 2666
Stream size : 28.9 MiB (1%)
Title : Thai PGS 1080p Low
Language : Thai
Default : No
Forced : No

Text #9
ID : 12
Format : UTF-8
Codec ID : S_TEXT/UTF8
Codec ID/Info : UTF-8 Plain Text
Duration : 1 h 36 min
Bit rate : 147 b/s
Count of elements : 1333
Stream size : 104 KiB (0%)
Title : Thai SRT
Language : Thai
Default : No
Forced : No

Text #10
ID : 13
Format : VobSub
Muxing mode : zlib
Codec ID : S_VOBSUB
Codec ID/Info : Picture based subtitle format used on DVDs
Duration : 1 h 38 min
Bit rate : 13.7 kb/s
Count of elements : 1423
Stream size : 9.65 MiB (0%)
Title : ENG
Language : English
Default : No
Forced : No

Text #11
ID : 14
Format : UTF-8
Codec ID : S_TEXT/UTF8
Codec ID/Info : UTF-8 Plain Text
Duration : 1 h 38 min
Bit rate : 76 b/s
Count of elements : 1423
Stream size : 55.1 KiB (0%)
Title : ENG SRT
Language : English
Default : No
Forced : No

DOWNLOAD


PART01 |||| PART02 |||| PART03 |||| PART04 |||| PART05

PART01 |||| PART02 |||| PART03 |||| PART04 |||| PART05

PART01 |||| PART02 |||| PART03 |||| PART04 |||| PART05

PART01 |||| PART02 |||| PART03 |||| PART04 |||| PART05


Leave A Reply

Your email address will not be published.

%d bloggers like this: