[MINI-HD] The Hunt for Red October (1990) ล่าตุลาแดง [1080p] [พากย์ไทย 5.1 + เสียงอังกฤษ 5.1] [บรรยายไทย + อังกฤษ] [เสียงไทย + ซับไทย] [OPENLOAD]

0

The Hunt for Red October (1990)

โหลดหนัง  The Hunt for Red October (1990) ล่าตุลาแดง

The Hunt for Red October (1990) 2h 15min | Action, Adventure, Thriller | 17 August 1990 (Netherlands) Summary: In November 1984, the Soviet Union's best submarine Captain in their newest sub violates orders and heads for the U.S. Is he trying to defect or to start a war?
Countries: USALanguages: English, Russian

เรื่องย่อ The Hunt for Red October (1990) ล่าตุลาแดง

นี่คือหนังที่สร้างจากนิยายของ Tom Clancy นักเขียนผู้เก่งฉกาจมากๆ สำหรับนิยายแนวทริลเลอร์ – แอ๊คชั่น+การเมืองน่ะนะครับ และเขาก็ได้สร้างตัวละครที่ชื่อว่า แจ๊ค ไรอัน (หรือชื่อเต็มว่า จอห์น แพทริค ไรอัน) ขึ้นมา ซึ่งแจ๊คก็เป็นเจ้าหน้าที่นักวิเคราะห์แห่งซีไอเอที่ ต้องมารับมือกับ สถานการณ์ตึงเครียดที่แตกต่างกันไป ส่วนใหญ่ก็จะเป็นเหตุการณ์ระหว่างประเทศที่สามารถจุด ชนวนสงครามโลกเอาได้ ง่ายๆ เลยทีเดียว เรื่องราวแต่ละตอนก็เข้มข้นทั้งนั้นครับ เพียงแค่จะมากน้อยแตกต่างกันไป

และนี่คือตอนแรกบนจอภาพยนตร์ของแจ๊ค ไรอัน (รับบทโดย Alec Baldwin) กับภารกิจการตามล่า เรือดำน้ำ Red October ของรัสเซีย ซึ่งสามารถเดินเครื่องตรงเข้าน่านน้ำอเมริกาได้ โดยที่ฝ่ายมะกันไม่สามารถตรวจจับได้เลย เพราะเรือดำน้ำลำดังกล่าวมีระบบเก็บเสียงที่เรียกว่า ตัวหนอน ซึ่งจะทำให้เรดาห์จับไม่ได้ หรือต่อให้จับได้ลักษณะมันก็จะเหมือนกับการเคลื่อนตั วของหินละลายหรือไม่ก็ เหมือนปลาวาฬผสมพันธุ์ (เลยไม่มีทางจับได้ครับ เพราะใต้มหาสมุทรมันมีหินละลายเคลื่อนตลอดอ้ะ ไหนจะปลาวาฬอีก มันก็มีอยู่ทั่วละครับ)

ทางการจึงคิดว่า จุดประสงค์การมาของ Red october ครั้งนี้คือก่อการวินาศกรรม แต่แจ๊ค กลับเห็นตรงข้าม เพราะเขาเชื่อว่าผู้การมาร์โก้ เรเมียส (Sean Connery) ผู้บัญชาการของเรือลำนี้น่าจะมีเหตุผลอื่นมากกว่า ซึ่งนั่นทำให้แจ๊คต้องตรงดิ่งไปกลางมหาสมุทรเพื่อตาม หา Red October ก่อนที่จะเกิดเหตุการณ์ร้ายแรงขึ้น

Complete name : [MINI-HD]_The.Hunt.for.Red.October.1990.1080p.BluRay.AC3.x264.One2loadup.com.mkv
Format : Matroska
Format version : Version 4
File size : 2.52 GiB
Duration : 2 h 15 min
Overall bit rate : 2 668 kb/s
Movie name : [MINI-HD]_The.Hunt.for.Red.October.1990.1080p.BluRay.AC3.x264.One2loadup.com
Encoded date : UTC 2016-08-06 09:39:08
Writing application : mkvmerge v8.3.0 (‘Over the Horizon’) 32bit
Writing library : libebml v1.3.1 + libmatroska v1.4.2

Video
ID : 1
Format : AVC
Format/Info : Advanced Video Codec
Format profile : [email protected]
Format settings : CABAC / 4 Ref Frames
Format settings, CABAC : Yes
Format settings, ReFrames : 4 frames
Codec ID : V_MPEG4/ISO/AVC
Duration : 2 h 15 min
Bit rate : 1 968 kb/s
Width : 1 920 pixels
Height : 816 pixels
Display aspect ratio : 2.35:1
Frame rate mode : Constant
Frame rate : 23.976 (24000/1001) FPS
Original frame rate : 23.976 (23976/1000) FPS
Color space : YUV
Chroma subsampling : 4:2:0
Bit depth : 8 bits
Scan type : Progressive
Bits/(Pixel*Frame) : 0.052
Stream size : 1.86 GiB (74%)
Title : [MINI-HD]_The.Hunt.for.Red.October.1990.1080p.BluRay.AC3.x264.One2loadup.com
Writing library : x264 core 142 r2479 dd79a61
Encoding settings : cabac=1 / ref=4 / deblock=1:-1:-1 / analyse=0x3:0x133 / me=umh / subme=9 / psy=1 / psy_rd=1.00:0.15 / mixed_ref=1 / me_range=24 / chroma_me=1 / trellis=2 / 8x8dct=1 / cqm=0 / deadzone=21,11 / fast_pskip=0 / chroma_qp_offset=-3 / threads=48 / lookahead_threads=4 / sliced_threads=0 / nr=0 / decimate=1 / interlaced=0 / bluray_compat=0 / constrained_intra=0 / bframes=3 / b_pyramid=2 / b_adapt=2 / b_bias=0 / direct=3 / weightb=1 / open_gop=0 / weightp=2 / keyint=250 / keyint_min=23 / scenecut=40 / intra_refresh=0 / rc_lookahead=60 / rc=2pass / mbtree=1 / bitrate=1968 / ratetol=1.0 / qcomp=0.60 / qpmin=0 / qpmax=69 / qpstep=4 / cplxblur=20.0 / qblur=0.5 / vbv_maxrate=31250 / vbv_bufsize=31250 / nal_hrd=none / filler=0 / ip_ratio=1.40 / aq=1:1.00
Default : Yes
Forced : No
Color range : Limited
Color primaries : BT.709
Matrix coefficients : BT.709

Audio #1
ID : 2
Format : AC-3
Format/Info : Audio Coding 3
Commercial name : Dolby Digital
Codec ID : A_AC3
Duration : 2 h 15 min
Bit rate mode : Constant
Bit rate : 192 kb/s
Channel(s) : 2 channels
Channel layout : L R
Sampling rate : 48.0 kHz
Frame rate : 31.250 FPS (1536 SPF)
Bit depth : 16 bits
Compression mode : Lossy
Stream size : 186 MiB (7%)
Language : Thai
Service kind : Complete Main
Default : Yes
Forced : No

Audio #2
ID : 3
Format : AC-3
Format/Info : Audio Coding 3
Commercial name : Dolby Digital
Codec ID : A_AC3
Duration : 2 h 15 min
Bit rate mode : Constant
Bit rate : 448 kb/s
Channel(s) : 6 channels
Channel layout : L R C LFE Ls Rs
Sampling rate : 48.0 kHz
Frame rate : 31.250 FPS (1536 SPF)
Bit depth : 16 bits
Compression mode : Lossy
Stream size : 433 MiB (17%)
Language : English
Service kind : Complete Main
Default : No
Forced : No

Text #1
ID : 4
Format : VobSub
Muxing mode : zlib
Codec ID : S_VOBSUB
Codec ID/Info : Picture based subtitle format used on DVDs
Duration : 2 h 10 min
Bit rate : 1 722 b/s
Count of elements : 1367
Stream size : 1.61 MiB (0%)
Title : 480p
Language : Thai
Default : No
Forced : No

Text #2
ID : 5
Format : VobSub
Muxing mode : zlib
Codec ID : S_VOBSUB
Codec ID/Info : Picture based subtitle format used on DVDs
Duration : 2 h 10 min
Bit rate : 3 164 b/s
Count of elements : 1367
Stream size : 2.96 MiB (0%)
Title : 720p
Language : Thai
Default : No
Forced : No

Text #3
ID : 6
Format : VobSub
Muxing mode : zlib
Codec ID : S_VOBSUB
Codec ID/Info : Picture based subtitle format used on DVDs
Duration : 2 h 10 min
Bit rate : 5 702 b/s
Count of elements : 1367
Stream size : 5.34 MiB (0%)
Title : 1800p
Language : Thai
Default : No
Forced : No

Text #4
ID : 7
Format : VobSub
Muxing mode : zlib
Codec ID : S_VOBSUB
Codec ID/Info : Picture based subtitle format used on DVDs
Duration : 2 h 10 min
Bit rate : 5 302 b/s
Count of elements : 1367
Stream size : 4.96 MiB (0%)
Title : 1800p
Language : Thai
Default : Yes
Forced : No

Text #5
ID : 8
Format : PGS
Muxing mode : zlib
Codec ID : S_HDMV/PGS
Codec ID/Info : Picture based subtitle format used on BDs/HD-DVDs
Duration : 2 h 10 min
Bit rate : 22.4 kb/s
Count of elements : 2734
Stream size : 20.9 MiB (1%)
Title : Angsana
Language : Thai
Default : No
Forced : No

Text #6
ID : 9
Format : PGS
Muxing mode : zlib
Codec ID : S_HDMV/PGS
Codec ID/Info : Picture based subtitle format used on BDs/HD-DVDs
Duration : 2 h 10 min
Bit rate : 21.5 kb/s
Count of elements : 2734
Stream size : 20.2 MiB (1%)
Title : Tahoma
Language : Thai
Default : No
Forced : No

Text #7
ID : 10
Format : UTF-8
Codec ID : S_TEXT/UTF8
Codec ID/Info : UTF-8 Plain Text
Duration : 2 h 9 min
Bit rate : 60 b/s
Count of elements : 2165
Stream size : 57.9 KiB (0%)
Title : SRT
Language : English
Default : No
Forced : No

DOWNLOAD


PART01 |||| PART02 |||| PART03

PART01 |||| PART02 |||| PART03

PART01 |||| PART02 |||| PART03

PART01 |||| PART02 |||| PART03


Leave A Reply

Your email address will not be published.

%d bloggers like this: