[MINI-HD] The Dreamers (2003) รักตามฝันไม่มีวันสลาย [1080p] [Rate 18+] [พากย์ไทย 5.1 + เสียงอังกฤษ DTS] [บรรยายไทย + อังกฤษ] [เสียงไทย + ซับไทย] [OPENLOAD]

0

The Dreamers (2003) รักตามฝันไม่มีวันสลาย

โหลดหนัง The Dreamers (2003) รักตามฝันไม่มีวันสลาย

The Dreamers (2003) 1h 55min | Drama, Romance | 1 April 2004 (Netherlands) Summary: A young American studying in Paris in 1968 strikes up a friendship with a French brother and sister. Set against the background of the '68 Paris student riots.
Countries: UK, France, ItalyLanguages: English, French

เรื่องย่อ The Dreamers (2003) รักตามฝันไม่มีวันสลาย

แมทธิว เด็กหนุ่มอเมริกันที่ไปศึกษาต่อที่ปารีส วันหนึ่งเขาได้ผูกมิตรกับพี่น้องฝาแฝดชาวฝรั่งเศส ธีโอกับอิซ่า (อีวา กรีน) ในระหว่างที่มีการประท้วงของนักศึกษา แมทธิวดีใจมากที่มีเพื่อนฝรั่งเศสเป็นกลุ่มแรก เขาคิดว่าเขาโชคดีเพราะธีโอกับอิซ่าก็หลงใหลการดูหนังเก่าเหมือนเขา และเขาก็เคยแอบมองอิซ่าบ่อยๆ เมื่อพ่อกับแม่ของธีโอและอิซ่าจะไม่อยู่บ้านสักพัก พวกเขาก็ได้ชวนแมทธิวย้ายมาอยู่ด้วยกัน ถึงอย่างนั้นก็ตาม แม้แมทธิวจะหลงรักอิซ่ามากแค่ไหน แต่เค้าก็ไม่เคยปริปากบอกเธอเลย

Complete name : [MINI-HD]_The.Dreamers.2003.Uncut.1080p.BrRip.DTS.x264.One2loadup.com.mkv
Format : Matroska
Format version : Version 4
File size : 3.18 GiB
Duration : 1 h 54 min
Overall bit rate : 3 969 kb/s
Movie name : [MINI-HD]_The.Dreamers.2003.Uncut.1080p.BrRip.DTS.x264.One2loadup.com
Encoded date : UTC 2018-06-22 04:52:09
Writing application : mkvmerge v18.0.0 (‘Apricity’) 64-bit
Writing library : libebml v1.3.5 + libmatroska v1.4.8
Cover : Yes
Attachments : cover.jpg

Video
ID : 1
Format : AVC
Format/Info : Advanced Video Codec
Format profile : [email protected]
Format settings : CABAC / 5 Ref Frames
Format settings, CABAC : Yes
Format settings, ReFrames : 5 frames
Codec ID : V_MPEG4/ISO/AVC
Duration : 1 h 54 min
Bit rate : 2 700 kb/s
Width : 1 920 pixels
Height : 1 080 pixels
Display aspect ratio : 16:9
Frame rate mode : Constant
Frame rate : 24.000 FPS
Color space : YUV
Chroma subsampling : 4:2:0
Bit depth : 8 bits
Scan type : Progressive
Bits/(Pixel*Frame) : 0.054
Stream size : 2.16 GiB (68%)
Title : [MINI-HD]_The.Dreamers.2003.Uncut.1080p.BrRip.DTS.x264.One2loadup.com
Writing library : x264 core 116 r2019M 9cc407d
Encoding settings : cabac=1 / ref=6 / deblock=1:0:0 / analyse=0x3:0x133 / me=hex / subme=7 / psy=1 / psy_rd=1.00:0.20 / mixed_ref=1 / me_range=16 / chroma_me=1 / trellis=1 / 8x8dct=1 / cqm=0 / deadzone=21,11 / fast_pskip=1 / chroma_qp_offset=-3 / threads=8 / sliced_threads=0 / nr=0 / decimate=1 / interlaced=0 / bluray_compat=0 / constrained_intra=0 / bframes=3 / b_pyramid=1 / b_adapt=2 / b_bias=0 / direct=3 / weightb=1 / open_gop=0 / weightp=2 / keyint=240 / keyint_min=24 / scenecut=40 / intra_refresh=0 / rc_lookahead=40 / rc=2pass / mbtree=1 / bitrate=2700 / ratetol=1.0 / qcomp=0.60 / qpmin=10 / qpmax=51 / qpstep=4 / cplxblur=20.0 / qblur=0.5 / vbv_maxrate=31250 / vbv_bufsize=62500 / nal_hrd=none / ip_ratio=1.40 / aq=1:1.00
Language : English
Default : Yes
Forced : No

Audio #1
ID : 2
Format : AC-3
Format/Info : Audio Coding 3
Commercial name : Dolby Digital
Codec ID : A_AC3
Duration : 1 h 54 min
Bit rate mode : Constant
Bit rate : 448 kb/s
Channel(s) : 6 channels
Channel layout : L R C LFE Ls Rs
Sampling rate : 48.0 kHz
Frame rate : 31.250 FPS (1536 SPF)
Bit depth : 16 bits
Compression mode : Lossy
Stream size : 367 MiB (11%)
Title : Thai AC3 5.1
Language : Thai
Service kind : Complete Main
Default : Yes
Forced : Yes

Audio #2
ID : 3
Format : DTS
Format/Info : Digital Theater Systems
Codec ID : A_DTS
Duration : 1 h 54 min
Bit rate mode : Constant
Bit rate : 768 kb/s
Channel(s) : 6 channels
Channel layout : C L R Ls Rs LFE
Sampling rate : 48.0 kHz
Frame rate : 93.750 FPS (512 SPF)
Bit depth : 24 bits
Compression mode : Lossy
Stream size : 629 MiB (19%)
Title : Eng DTS 5.1
Language : English
Default : No
Forced : No

Text #1
ID : 4
Format : UTF-8
Codec ID : S_TEXT/UTF8
Codec ID/Info : UTF-8 Plain Text
Duration : 1 h 45 min
Bit rate : 47 b/s
Count of elements : 1057
Stream size : 36.5 KiB (0%)
Title : Eng
Language : English
Default : No
Forced : No

Text #2
ID : 5
Format : PGS
Muxing mode : zlib
Codec ID : S_HDMV/PGS
Codec ID/Info : Picture based subtitle format used on BDs/HD-DVDs
Duration : 1 h 48 min
Bit rate : 32.3 kb/s
Count of elements : 2066
Stream size : 25.1 MiB (1%)
Title : Thai PGS Tahoma
Language : Thai
Default : No
Forced : No

Text #3
ID : 6
Format : PGS
Muxing mode : zlib
Codec ID : S_HDMV/PGS
Codec ID/Info : Picture based subtitle format used on BDs/HD-DVDs
Duration : 1 h 48 min
Bit rate : 36.0 kb/s
Count of elements : 2066
Stream size : 28.0 MiB (1%)
Title : Thai PGS Cordia
Language : Thai
Default : No
Forced : No

Text #4
ID : 7
Format : PGS
Muxing mode : zlib
Codec ID : S_HDMV/PGS
Codec ID/Info : Picture based subtitle format used on BDs/HD-DVDs
Duration : 1 h 48 min
Bit rate : 36.4 kb/s
Count of elements : 2066
Stream size : 28.3 MiB (1%)
Title : Thai PGS Angsana
Language : Thai
Default : Yes
Forced : Yes

Text #5
ID : 8
Format : VobSub
Muxing mode : zlib
Codec ID : S_VOBSUB
Codec ID/Info : Picture based subtitle format used on DVDs
Duration : 1 h 48 min
Bit rate : 7 509 b/s
Count of elements : 1033
Stream size : 5.84 MiB (0%)
Title : Thai 1080p
Language : Thai
Default : No
Forced : No

Text #6
ID : 9
Format : VobSub
Muxing mode : zlib
Codec ID : S_VOBSUB
Codec ID/Info : Picture based subtitle format used on DVDs
Duration : 1 h 48 min
Bit rate : 2 200 b/s
Count of elements : 1033
Stream size : 1.71 MiB (0%)
Title : Thai 480p
Language : Thai
Default : No
Forced : No

DOWNLOAD


PART01 |||| PART02 |||| PART03 |||| PART04

PART01 |||| PART02 |||| PART03 |||| PART04

PART01 |||| PART02 |||| PART03 |||| PART04

PART01 |||| PART02 |||| PART03 |||| PART04


Leave A Reply

Your email address will not be published.