[MINI-HD] The Chronicles Of Riddick (2004) ริดดิค ภาค 2 [720p] [พากย์ไทย 5.1 + เสียงอังกฤษ 5.1] [บรรยายไทย + อังกฤษ] [เสียงไทย + ซับไทย] [PANDAFILE]

2

The Chronicles Of Riddick (2004)

โหลดหนัง The Chronicles Of Riddick (2004) ริดดิค ภาค 2

The Chronicles of Riddick | June 11, 2004 (United States) Summary:
Countries: United StatesLanguages: English

เรื่องย่อ The Chronicles Of Riddick (2004) ริดดิค ภาค 2

ดาวเคราะห์ดวงแล้วดวงเล่า ต้องตกอยู่ในกำมือของกองทัพชั่วร้ายของพวก เนโครมองเกอร์ (Necromongers) ภายใต้การนำของจอมเผด็จการ ลอร์ดมาร์แชล กลุ่มนักรบผู้มีชัยที่เสนอทางเลือกง่าย ๆ ให้กับโลกที่โดนทำลาย นั่นก็คือยอมจำนน หรือไม่งั้นก็ตาย บรรดาผู้ที่ปฏิเสธการปกครองของพวกเนโครมองเกอร์ ต่างหวังลม ๆ แล้ง ๆ ว่าจะได้พบใครสักคน หรืออะไรสักอย่าง ที่จะมายับยั้งการขยายอำนาจของพวกเนโครมองเกอร์ แต่พวกกบฏมีชีวิตอยู่ได้ไม่นาน และดูเหมือนว่าคนที่จะช่วยพวกเขาได้ ก็มีอยู่น้อยเต็มที่เมื่อเหตุการณ์เริ่มเลวร้าย ผู้รอดชีวิตที่ต่างเหนื่อยล้า ต่างหันไปพึ่งพิงตำนานเพื่อบรรเทาทุกข์ในใจ พวกเขาพร่ำเพ้อถึงคำทำนาย ความหวังลม ๆ แล้ง ๆ เรื่องเล่าในตำนานเกี่ยวกับความดีที่มีชัยเหนือความช ั่ว แต่ความดีใช่จะเป็นสิ่งที่ต้านความชั่วร้ายได้เสมอไป และตำนานอาจผิดพลาดได้บางครั้ง ทางเดียวที่จะหยุดความชั่วร้ายได้ อาจไม่เกี่ยวกับความดี แต่เป็นความชั่วร้ายในอีกรูปแบบหนึ่งต่างหาก ดังนั้น บุคคลที่ดูไม่น่าเป็นฮีโร่ จึงถูกเรียกตัวมาหลังจากโดนเนรเทศ และได้รับคำขอร้องให้เข้าร่วมในการต่อสู้ เขาก็คือ ริดดิก ผู้ไม่แคร์ว่าใครจะเป็นผู้ปกครองจักรวาล ตราบใดที่ไม่มีใครมายุ่งกับเขา นับแต่เดินทางออกจากดาวเคราะห์ดวงหนึ่ง ในระบบสุริยะทอรัส ที่แม้แต่เทพเจ้ายังลืมเมื่อห้าปีก่อน ริดดิคซึ่งเป็นอาชญากรผู้เป็นที่ต้องการตัว ไม่เคยมองย้อนกลับไปสู่อดีต เวลาส่วนใหญ่ของเขา หมดไปกับการหลบหนีจากการจับกุม ของพวกนักล่าเงินรางวัลที่ไล่ตามเขามาตลอด สำหรับริดดิคแล้ว ไม่ว่าจักรวาลจะพินาศหรือไม่ ทุกอย่างล้วนไม่แตกต่าง นักรบฉายเดี่ยวนายนี้ สนใจแต่เพียงเอาชีวิตตัวเองให้รอด ถ้าลองแหยมเดินเข้ามาขวางเส้นทางของเขา ริดดิคพร้อมจัดการกับทุกคน แต่บางสิ่งกำลังเปลี่ยนแปลง การเผชิญหน้าที่ใกล้มาถึง ทำให้ริดดิคต้องเข้ามาเกี่ยวข้องกับการต่อสู้อันกล้า หาญ ที่ผู้ชนะเท่านั้นจะได้ครอบครองทุกอย่าง ตั้งแต่อารยธรรมอันหลากหลาย ที่อยู่ภายใต้การโจมตี ไปจนถึงคุกใต้ดิน ที่อยู่ใต้พื้นผิวของดาวเคราะห์ภูเขาไฟที่ร้อนดั่งนร ก และในที่สุด ก็คือบนยานบาซิลิก้า ยานแม่ของพวกเนโคร และเป็นขุมแห่งอำนาจในอาณาจักรมืดของพวกเนโครในสงครามครั้งสุดท้าย มีคำทำนายว่าชะตากรรมของทุกชีวิตขึ้นอยู่กับโชคชะตาข องชาวฟิวเรี่ยนหนึ่งเดียว และพลังทั้งหมดทั้งมวลในจักรวาล ก็มิอาจหยุดชะตากรรมนี้ได้

Complete name : [MINI-HD]_2.The.Chronicles.Of.Riddick.2004.720p.AC3.x264.One2loadup.com.mkv
Format : Matroska
Format version : Version 2
File size : 2.84 GiB
Duration : 1 h 59 min
Overall bit rate : 3 408 kb/s
Movie name : MINI-HD]_2.The.Chronicles.Of.Riddick.2004.720p.AC3.x264.One2loadup.com
Encoded date : UTC 2013-01-06 05:37:23
Writing application : mkvmerge v3.4.0 (‘Rapunzel’) built on May 15 2010 09:38:20
Writing library : libebml v0.8.0 + libmatroska v0.9.0

Video
ID : 1
Format : AVC
Format/Info : Advanced Video Codec
Format profile : [email protected]
Format settings : CABAC / 3 Ref Frames
Format settings, CABAC : Yes
Format settings, ReFrames : 3 frames
Codec ID : V_MPEG4/ISO/AVC
Duration : 1 h 59 min
Bit rate : 2 500 kb/s
Width : 1 280 pixels
Height : 536 pixels
Display aspect ratio : 2.40:1
Original display aspect rat : 2.40:1
Frame rate mode : Constant
Frame rate : 23.976 (24000/1001) FPS
Color space : YUV
Chroma subsampling : 4:2:0
Bit depth : 8 bits
Scan type : Progressive
Bits/(Pixel*Frame) : 0.152
Stream size : 2.04 GiB (72%)
Title : MINI-HD]_2.The.Chronicles.Of.Riddick.2004.720p.AC3.x264.One2loadup.com
Writing library : x264 core 116 r2019M 9cc407d
Encoding settings : cabac=1 / ref=3 / deblock=1:0:0 / analyse=0x3:0x133 / me=hex / subme=7 / psy=1 / psy_rd=1.00:0.20 / mixed_ref=1 / me_range=16 / chroma_me=1 / trellis=1 / 8x8dct=1 / cqm=0 / deadzone=21,11 / fast_pskip=1 / chroma_qp_offset=-3 / threads=8 / sliced_threads=0 / nr=0 / decimate=1 / interlaced=0 / bluray_compat=0 / constrained_intra=0 / bframes=3 / b_pyramid=1 / b_adapt=2 / b_bias=0 / direct=3 / weightb=1 / open_gop=0 / weightp=2 / keyint=230 / keyint_min=23 / scenecut=40 / intra_refresh=0 / rc_lookahead=40 / rc=2pass / mbtree=1 / bitrate=2500 / ratetol=1.0 / qcomp=0.60 / qpmin=10 / qpmax=51 / qpstep=4 / cplxblur=20.0 / qblur=0.5 / ip_ratio=1.40 / aq=1:1.00
Language : English
Default : Yes
Forced : No

Audio #1
ID : 2
Format : AC-3
Format/Info : Audio Coding 3
Commercial name : Dolby Digital
Codec ID : A_AC3
Duration : 1 h 59 min
Bit rate mode : Constant
Bit rate : 448 kb/s
Channel(s) : 6 channels
Channel layout : L R C LFE Ls Rs
Sampling rate : 48.0 kHz
Frame rate : 31.250 FPS (1536 SPF)
Bit depth : 16 bits
Compression mode : Lossy
Stream size : 382 MiB (13%)
Title : Thai AC3 5.1 at 448 Kbps [DVD Master]
Language : Thai
Service kind : Complete Main
Default : Yes
Forced : No

Audio #2
ID : 3
Format : AC-3
Format/Info : Audio Coding 3
Commercial name : Dolby Digital
Codec ID : A_AC3
Duration : 1 h 59 min
Bit rate mode : Constant
Bit rate : 448 kb/s
Channel(s) : 6 channels
Channel layout : L R C LFE Ls Rs
Sampling rate : 48.0 kHz
Frame rate : 31.250 FPS (1536 SPF)
Bit depth : 16 bits
Compression mode : Lossy
Stream size : 382 MiB (13%)
Title : English AC3 5.1 at 448 Kbps
Language : English
Service kind : Complete Main
Default : No
Forced : No

Text #1
ID : 4
Format : VobSub
Muxing mode : zlib
Codec ID : S_VOBSUB
Codec ID/Info : Picture based subtitle format used on DVDs
Title : Thai 480p Under [DVD Master]
Language : Thai
Default : Yes
Forced : No

Text #2
ID : 5
Format : VobSub
Muxing mode : zlib
Codec ID : S_VOBSUB
Codec ID/Info : Picture based subtitle format used on DVDs
Title : Thai 1080p Under [BluRay Master]
Language : Thai
Default : No
Forced : No

Text #3
ID : 6
Format : VobSub
Muxing mode : zlib
Codec ID : S_VOBSUB
Codec ID/Info : Picture based subtitle format used on DVDs
Title : Thai 1080p Original [BluRay Master]
Language : Thai
Default : No
Forced : No

Text #4
ID : 7
Format : VobSub
Muxing mode : zlib
Codec ID : S_VOBSUB
Codec ID/Info : Picture based subtitle format used on DVDs
Title : English 480p Under [DVD Master]
Language : English
Default : No
Forced : No

Text #5
ID : 8
Format : VobSub
Muxing mode : zlib
Codec ID : S_VOBSUB
Codec ID/Info : Picture based subtitle format used on DVDs
Title : English 480p Original [DVD Master]
Language : English
Default : No
Forced : No

DOWNLOAD


PART01 |||| PART02 |||| PART03

PART01 |||| PART02 |||| PART03

PART01 |||| PART02 |||| PART03

PART01 |||| PART02 |||| PART03

PART01 |||| PART02 |||| PART03


2 Comments
  1. Leo Beer
    Leo Beer says

    โหลดไม่ได้ดลยครับ

    1. Admin
      Admin says

      แก้ไขเรียบร้อยฮ๊ะ

Leave A Reply

อีเมล์ของคุณจะไม่แสดงให้เห็น Your email address will not be published.

%d bloggers like this: