[MINI-HD] Superman Returns (2006) ซูเปอร์แมน รีเทิร์น ภาค 5 [1080p] [พากย์ไทย 5.1 + เสียงอังกฤษ DTS] [บรรยายไทย + อังกฤษ] [เสียงไทย + ซับไทย] [DOSYAUPLOAD]

0

โหลดหนัง Superman Returns (2006) ซูเปอร์แมน รีเทิร์น ภาค 5

Superman Returns (2006) 154min | Action, Sci-Fi | 28 June 2006 (USA) Summary: Superman returns to Earth after spending five years in space examining his homeworld Krypton. But he finds things have changed while he was gone, and he must once again prove himself important to the world.
Countries: USA, AustraliaLanguages: English, German, French

เรื่องย่อ Superman Returns (2006) ซูเปอร์แมน รีเทิร์น ภาค 5

ในขณะที่ศัตรูเก่าวางแผนที่จะทำให้เขาสิ้นพลังอีกครั้งและตลอดไป ซูเปอร์แมน (แบรนดอน รูธ) ต้องตระหนักกับความเป็นจริงที่ทำให้เสียใจยิ่งเมื่อหญิงสาวที่เขารัก โลอิส เลน (เคท บอสเวิร์ธ) ได้เดินจากไปแล้วการกลับมาอย่างหวานอมขมกลืนของซูเปอร์แมนท้าทายเขาให้เชื่อมต่อระยะห่างระหว่างทั้งคู่ ในขณะเดียวกันก็หาจุดยืนในสังคมที่ได้เรียนรู้การอยู่รอดเมื่อไม่มีเขา ในความพยายามที่จะปกป้องโลกที่เขารักจากมหันตภัยแห่งการทำลายล้าง ซูเปอร์แมนก้าวเข้าสู่การเดินทางเพื่อไถ่หนี้ ที่พาเขาให้ดำดิ่งสู่มหาสมุทรไปจนถึงนอกอวกาศอันไกลโพ้น!!

Complete name : [MINI-HD]_Superman.Returns.2006.1080p.BluRay.DTS.x264.One2loadup.com.mkv
Format : Matroska
Format version : Version 4
File size : 5.31 GiB
Duration : 2 h 34 min
Overall bit rate mode : Variable
Overall bit rate : 4 925 kb/s
Movie name : [MINI-HD]_Superman.Returns.2006.1080p.BluRay.DTS.x264.One2loadup.com
Encoded date : UTC 2013-08-29 14:23:29
Writing application : mkvmerge v6.3.0 (‘You can’t stop me!’) built on Jun 28 2013 20:09:41
Writing library : libebml v1.3.0 + libmatroska v1.4.0

Video
ID : 1
Format : AVC
Format/Info : Advanced Video Codec
Format profile : [email protected]
Format settings : CABAC / 3 Ref Frames
Format settings, CABAC : Yes
Format settings, Reference : 3 frames
Codec ID : V_MPEG4/ISO/AVC
Duration : 2 h 34 min
Bit rate mode : Variable
Bit rate : 3 000 kb/s
Maximum bit rate : 62.5 Mb/s
Width : 1 920 pixels
Height : 800 pixels
Display aspect ratio : 2.40:1
Frame rate mode : Constant
Frame rate : 23.976 (24000/1001) FPS
Color space : YUV
Chroma subsampling : 4:2:0
Bit depth : 8 bits
Scan type : Progressive
Bits/(Pixel*Frame) : 0.081
Stream size : 3.16 GiB (60%)
Title : [MINI-HD]_Superman.Returns.2006.1080p.BluRay.DTS.x264.One2loadup.com
Writing library : x264 core 114 r1924 08d04a4
Encoding settings : cabac=1 / ref=3 / deblock=1:0:0 / analyse=0x3:0x133 / me=umh / subme=7 / psy=1 / psy_rd=1.00:0.00 / mixed_ref=1 / me_range=16 / chroma_me=1 / trellis=1 / 8x8dct=1 / cqm=0 / deadzone=21,11 / fast_pskip=1 / chroma_qp_offset=-2 / threads=3 / sliced_threads=0 / nr=0 / decimate=1 / interlaced=0 / constrained_intra=0 / bframes=3 / b_pyramid=0 / b_adapt=1 / b_bias=0 / direct=1 / weightb=1 / open_gop=0 / weightp=2 / keyint=240 / keyint_min=24 / scenecut=40 / intra_refresh=0 / rc_lookahead=40 / rc=2pass / mbtree=1 / bitrate=3000 / ratetol=1.0 / qcomp=0.60 / qpmin=0 / qpmax=69 / qpstep=4 / cplxblur=20.0 / qblur=0.5 / vbv_maxrate=62500 / vbv_bufsize=62500 / nal_hrd=vbr / ip_ratio=1.40 / aq=1:1.00
Language : English
Default : Yes
Forced : No

Audio #1
ID : 2
Format : AC-3
Format/Info : Audio Coding 3
Commercial name : Dolby Digital
Codec ID : A_AC3
Duration : 2 h 34 min
Bit rate mode : Constant
Bit rate : 384 kb/s
Channel(s) : 6 channels
Channel layout : L R C LFE Ls Rs
Sampling rate : 48.0 kHz
Frame rate : 31.250 FPS (1536 SPF)
Compression mode : Lossy
Stream size : 424 MiB (8%)
Title : Thai AC-3 5.1 at 384 Kbps DVD Master
Language : Thai
Service kind : Complete Main
Default : Yes
Forced : No

Audio #2
ID : 3
Format : DTS
Format/Info : Digital Theater Systems
Codec ID : A_DTS
Duration : 2 h 34 min
Bit rate mode : Constant
Bit rate : 1 509 kb/s
Channel(s) : 6 channels
Channel layout : C L R Ls Rs LFE
Sampling rate : 48.0 kHz
Frame rate : 93.750 FPS (512 SPF)
Bit depth : 16 bits
Compression mode : Lossy
Stream size : 1.63 GiB (31%)
Title : English DTS 5.1 at 1 509 Kbps
Language : English
Default : No
Forced : No

Text #1
ID : 4
Format : VobSub
Muxing mode : zlib
Codec ID : S_VOBSUB
Codec ID/Info : Picture based subtitle format used on DVDs
Title : Thai 480p
Language : Thai
Default : No
Forced : No

Text #2
ID : 5
Format : VobSub
Muxing mode : zlib
Codec ID : S_VOBSUB
Codec ID/Info : Picture based subtitle format used on DVDs
Title : Thai 1080p
Language : Thai
Default : Yes
Forced : No

Text #3
ID : 6
Format : VobSub
Muxing mode : zlib
Codec ID : S_VOBSUB
Codec ID/Info : Picture based subtitle format used on DVDs
Title : Thai 1080p Under
Language : Thai
Default : No
Forced : No

Text #4
ID : 7
Format : PGS
Muxing mode : zlib
Codec ID : S_HDMV/PGS
Codec ID/Info : Picture based subtitle format used on BDs/HD-DVDs
Title : Thai PGS
Language : Thai
Default : No
Forced : No

Text #5
ID : 8
Format : PGS
Muxing mode : zlib
Codec ID : S_HDMV/PGS
Codec ID/Info : Picture based subtitle format used on BDs/HD-DVDs
Title : Thai PGS Under
Language : Thai
Default : No
Forced : No

Text #6
ID : 9
Format : VobSub
Muxing mode : zlib
Codec ID : S_VOBSUB
Codec ID/Info : Picture based subtitle format used on DVDs
Title : English 1080p
Language : English
Default : No
Forced : No

Text #7
ID : 10
Format : PGS
Muxing mode : zlib
Codec ID : S_HDMV/PGS
Codec ID/Info : Picture based subtitle format used on BDs/HD-DVDs
Title : English PGS
Language : English
Default : No
Forced : No

Text #8
ID : 11
Format : UTF-8
Codec ID : S_TEXT/UTF8
Codec ID/Info : UTF-8 Plain Text
Title : English SRT
Language : English
Default : No
Forced : No

Menu
00:00:00.000 : en:00:00:00.000
00:05:04.304 : en:00:05:04.304
00:07:34.454 : en:00:07:34.454
00:10:46.479 : en:00:10:46.479
00:16:31.991 : en:00:16:31.991
00:19:47.019 : en:00:19:47.019
00:21:29.288 : en:00:21:29.288
00:25:23.188 : en:00:25:23.188
00:27:26.144 : en:00:27:26.144
00:31:10.702 : en:00:31:10.702
00:35:08.773 : en:00:35:08.773
00:38:49.327 : en:00:38:49.327
00:41:54.512 : en:00:41:54.512
00:46:48.806 : en:00:46:48.806
00:49:25.296 : en:00:49:25.296
00:53:50.394 : en:00:53:50.394
00:56:47.571 : en:00:56:47.571
01:01:14.337 : en:01:01:14.337
01:06:40.163 : en:01:06:40.163
01:11:49.305 : en:01:11:49.305
01:17:12.795 : en:01:17:12.795
01:19:41.777 : en:01:19:41.777
01:22:58.807 : en:01:22:58.807
01:28:52.994 : en:01:28:52.994
01:32:58.406 : en:01:32:58.406
01:35:48.910 : en:01:35:48.910
01:40:09.337 : en:01:40:09.337
01:44:31.098 : en:01:44:31.098
01:49:28.061 : en:01:49:28.061
01:51:51.538 : en:01:51:51.538
01:56:15.635 : en:01:56:15.635
01:58:33.773 : en:01:58:33.773
02:01:54.307 : en:02:01:54.307
02:04:36.969 : en:02:04:36.969
02:07:42.655 : en:02:07:42.655
02:11:41.060 : en:02:11:41.060
02:15:46.638 : en:02:15:46.638
02:19:38.036 : en:02:19:38.036
02:20:29.421 : en:02:20:29.421
02:24:06.304 : en:02:24:06.304
02:26:31.950 : en:02:26:31.950

DOWNLOAD


PART01 |||| PART02 |||| PART03 |||| PART04 |||| PART05 |||| PART06

PART01 |||| PART02 |||| PART03 |||| PART04 |||| PART05 |||| PART06

PART01 |||| PART02 |||| PART03 |||| PART04 |||| PART05 |||| PART06

PART01 |||| PART02 |||| PART03 |||| PART04 |||| PART05 |||| PART06

PART01 |||| PART02 |||| PART03 |||| PART04 |||| PART05 |||| PART06


Leave A Reply

Your email address will not be published.

%d bloggers like this: