[MINI-HD] Superman IV: The Quest for Peace (1987) ซูเปอร์แมน IV: เดอะ เควสท์ ฟอร์ พีซ ภาค 4 [1080p] [พากย์ไทย 2.0 + เสียงอังกฤษ DTS] [บรรยายไทย + อังกฤษ] [เสียงไทย + ซับไทย] [DOSYAUPLOAD]

0

โหลดหนัง Superman IV: The Quest for Peace (1987) ซูเปอร์แมน IV: เดอะ เควสท์ ฟอร์ พีซ ภาค 4

Superman IV: The Quest for Peace (1987) 90min | Action, Adventure, Sci-Fi | 24 July 1987 (USA) Summary: The Man of Steel crusades for nuclear disarmament and meets Lex Luthor's latest creation, Nuclear Man.
Countries: UK, USALanguages: English, Russian, French, Italian

เรื่องย่อ Superman IV: The Quest for Peace (1987) ซูเปอร์แมน IV: เดอะ เควสท์ ฟอร์ พีซ ภาค 4

ปฐมบทของซุปเปอร์ฮีโร่ คนสำคัญของโลกเกิดขึ้นเมื่อมนุษย์ต่างดาวได้ส่งเด็กกำพร้ามายังโลกมนุษย์ สองสามีภรรยาในฟาร์มเก่าแก่ได้เลี้ยงดูเขาไว้โดยตั้งชื่อว่า คลาก เค้นส์ เขาเติบโตขึ้นเป็นผู้สื่อข่าวผู้อ่อนโยนแห่งหนังสือพิมพ์ เดลี่ แพลเนท เมื่อองค์กรแคลปตันคิดทำลายล้างโลกเค้นส์ ต้องใช้พลังอำนาจที่ติดตัวมาออกขัดขวางแผนการร้ายนี้ในนามของซุปเปอร์แมน!

Complete name : [MINI-HD]_Superman.IV.The.Quest.for.Peace.1987.1080p.BluRay.DTS.x264.One2loadup.com.mkv
Format : Matroska
Format version : Version 4
File size : 2.98 GiB
Duration : 1 h 29 min
Overall bit rate mode : Variable
Overall bit rate : 4 749 kb/s
Movie name : [MINI-HD]_Superman.IV.The.Quest.for.Peace.1987.1080p.BluRay.DTS.x264.One2loadup.com
Encoded date : UTC 2013-08-29 14:04:54
Writing application : mkvmerge v6.3.0 (‘You can’t stop me!’) built on Jun 28 2013 20:09:41
Writing library : libebml v1.3.0 + libmatroska v1.4.0

Video
ID : 1
Format : AVC
Format/Info : Advanced Video Codec
Format profile : [email protected]
Format settings : CABAC / 3 Ref Frames
Format settings, CABAC : Yes
Format settings, Reference : 3 frames
Codec ID : V_MPEG4/ISO/AVC
Duration : 1 h 29 min
Bit rate mode : Variable
Bit rate : 3 000 kb/s
Maximum bit rate : 62.5 Mb/s
Width : 1 920 pixels
Height : 800 pixels
Display aspect ratio : 2.40:1
Frame rate mode : Constant
Frame rate : 23.976 (24000/1001) FPS
Color space : YUV
Chroma subsampling : 4:2:0
Bit depth : 8 bits
Scan type : Progressive
Bits/(Pixel*Frame) : 0.081
Stream size : 1.85 GiB (62%)
Title : [MINI-HD]_Superman.IV.The.Quest.for.Peace.1987.1080p.BluRay.DTS.x264.One2loadup.com
Writing library : x264 core 114 r1924 08d04a4
Encoding settings : cabac=1 / ref=3 / deblock=1:0:0 / analyse=0x3:0x133 / me=umh / subme=7 / psy=1 / psy_rd=1.00:0.00 / mixed_ref=1 / me_range=16 / chroma_me=1 / trellis=1 / 8x8dct=1 / cqm=0 / deadzone=21,11 / fast_pskip=1 / chroma_qp_offset=-2 / threads=3 / sliced_threads=0 / nr=0 / decimate=1 / interlaced=0 / constrained_intra=0 / bframes=3 / b_pyramid=0 / b_adapt=1 / b_bias=0 / direct=1 / weightb=1 / open_gop=0 / weightp=2 / keyint=240 / keyint_min=24 / scenecut=40 / intra_refresh=0 / rc_lookahead=40 / rc=2pass / mbtree=1 / bitrate=3000 / ratetol=1.0 / qcomp=0.60 / qpmin=0 / qpmax=69 / qpstep=4 / cplxblur=20.0 / qblur=0.5 / vbv_maxrate=62500 / vbv_bufsize=62500 / nal_hrd=vbr / ip_ratio=1.40 / aq=1:1.00
Language : English
Default : Yes
Forced : No

Audio #1
ID : 2
Format : AC-3
Format/Info : Audio Coding 3
Commercial name : Dolby Digital
Codec ID : A_AC3
Duration : 1 h 29 min
Bit rate mode : Constant
Bit rate : 192 kb/s
Channel(s) : 2 channels
Channel layout : L R
Sampling rate : 48.0 kHz
Frame rate : 31.250 FPS (1536 SPF)
Compression mode : Lossy
Stream size : 123 MiB (4%)
Title : Thai AC-3 2.0 at 192 Kbps BluRay Master
Language : Thai
Service kind : Complete Main
Default : Yes
Forced : No

Audio #2
ID : 3
Format : DTS
Format/Info : Digital Theater Systems
Codec ID : A_DTS
Duration : 1 h 29 min
Bit rate mode : Constant
Bit rate : 1 509 kb/s
Channel(s) : 2 channels
Channel layout : L R
Sampling rate : 48.0 kHz
Frame rate : 93.750 FPS (512 SPF)
Bit depth : 24 bits
Compression mode : Lossy
Stream size : 970 MiB (32%)
Title : English DTS 2.0 at 1 509 Kbps
Language : English
Default : No
Forced : No

Text #1
ID : 4
Format : VobSub
Muxing mode : zlib
Codec ID : S_VOBSUB
Codec ID/Info : Picture based subtitle format used on DVDs
Title : Thai 480p
Language : Thai
Default : No
Forced : No

Text #2
ID : 5
Format : VobSub
Muxing mode : zlib
Codec ID : S_VOBSUB
Codec ID/Info : Picture based subtitle format used on DVDs
Title : Thai 1080p
Language : Thai
Default : Yes
Forced : No

Text #3
ID : 6
Format : VobSub
Muxing mode : zlib
Codec ID : S_VOBSUB
Codec ID/Info : Picture based subtitle format used on DVDs
Title : Thai 1080p Under
Language : Thai
Default : No
Forced : No

Text #4
ID : 7
Format : PGS
Muxing mode : zlib
Codec ID : S_HDMV/PGS
Codec ID/Info : Picture based subtitle format used on BDs/HD-DVDs
Title : Thai PGS
Language : Thai
Default : No
Forced : No

Text #5
ID : 8
Format : PGS
Muxing mode : zlib
Codec ID : S_HDMV/PGS
Codec ID/Info : Picture based subtitle format used on BDs/HD-DVDs
Title : Thai PGS Under
Language : Thai
Default : No
Forced : No

Text #6
ID : 9
Format : VobSub
Muxing mode : zlib
Codec ID : S_VOBSUB
Codec ID/Info : Picture based subtitle format used on DVDs
Title : English 1080p
Language : English
Default : No
Forced : No

Text #7
ID : 10
Format : PGS
Muxing mode : zlib
Codec ID : S_HDMV/PGS
Codec ID/Info : Picture based subtitle format used on BDs/HD-DVDs
Title : English PGS
Language : English
Default : No
Forced : No

Text #8
ID : 11
Format : UTF-8
Codec ID : S_TEXT/UTF8
Codec ID/Info : UTF-8 Plain Text
Title : English SRT
Language : English
Default : No
Forced : No

Menu
00:00:00.000 : en:00:00:00.000
00:02:50.921 : en:00:02:50.921
00:05:10.977 : en:00:05:10.977
00:07:49.344 : en:00:07:49.344
00:10:06.648 : en:00:10:06.648
00:12:40.301 : en:00:12:40.301
00:14:43.007 : en:00:14:43.007
00:17:40.643 : en:00:17:40.643
00:20:21.762 : en:00:20:21.762
00:24:20.042 : en:00:24:20.042
00:25:44.668 : en:00:25:44.668
00:31:06.281 : en:00:31:06.281
00:33:58.161 : en:00:33:58.161
00:35:53.860 : en:00:35:53.860
00:39:31.953 : en:00:39:31.953
00:42:38.389 : en:00:42:38.389
00:44:57.486 : en:00:44:57.486
00:48:23.359 : en:00:48:23.359
00:54:16.128 : en:00:54:16.128
00:58:17.327 : en:00:58:17.327
01:02:13.271 : en:01:02:13.271
01:05:21.501 : en:01:05:21.501
01:09:57.860 : en:01:09:57.860
01:12:39.105 : en:01:12:39.105
01:14:51.696 : en:01:14:51.696
01:19:17.586 : en:01:19:17.586
01:21:36.225 : en:01:21:36.225
01:24:28.272 : en:01:24:28.272
01:26:05.243 : en:01:26:05.243

DOWNLOAD


PART01 |||| PART02 |||| PART03 |||| PART04

PART01 |||| PART02 |||| PART03 |||| PART04

PART01 |||| PART02 |||| PART03 |||| PART04

PART01 |||| PART02 |||| PART03 |||| PART04

PART01 |||| PART02 |||| PART03 |||| PART04


Leave A Reply

Your email address will not be published.

%d bloggers like this: