[MINI-HD] Step Up 3D (2010) สเต็ปโดนใจ หัวใจโดนเธอ ภาค 3 [1080p] [พากย์ไทย 5.1 + เสียงอังกฤษ DTS] [บรรยายไทย + อังกฤษ] [เสียงไทย + ซับไทย] [OPENLOAD]

0

Step Up 3D (2010)

โหลดหนัง Step Up 3D (2010) สเต็ปโดนใจ หัวใจโดนเธอ ภาค 3

Step Up 3D (2010) 1h 47min | Drama, Music, Romance | 6 August 2010 (Canada) Summary: A tight-knit group of New York City street dancers find themselves pitted against the world's best hip hop dancers in a high-stakes showdown.
Countries: USALanguages: English

เรื่องย่อ Step Up 3D (2010) สเต็ปโดนใจ หัวใจโดนเธอ ภาค 3

เมื่อ มูส (อดัมส์ เซวานิ) นักเต้นมากพรสวรรค์จากภาคที่แล้วสำเร็จการศึกษาจากโรงเรียนสอนศิลปะเอ็มเอสเอ มุ่งหน้าไปกรุงนิวยอร์คเพื่อศึกษาต่อ เขาพบกับ ลุค (ริค มาลามบรี้) หนึ่งในสมาชิกทีมเต้น เฮ้าส์ ออฟ ไพเรท ที่ถือเป็นทีมอันดับหนึ่งบนเวทีแดนซ์อันเดอร์กราวน์ ซึ่งเป็นสวรรค์ของนักเต้นรุ่นใหม่ไฟแรงทั่วทุกมุมโลก เขามองเห็นแววของ มูส จึงชวนเข้ามาเป็นหนึ่งในสมาชิก เพื่อจัดการกับทีมเต้น เฮ้าส์ ออฟ ซามูไร คู่ปรับตลอดกาล ในการแข่งขัน เวิร์ล แจม ที่จะมีทีมนักเต้นจากทั่วทุกมุมโลกเข้าร่วมแข่งขัน เพื่อช่วงชิงเงินรางวัลก้อนโตกลับบ้าน มูส และ ลุค ยังพบกับนักเต้นสาวมากพรสวรรค์อย่าง นาตาลี (เชย์นิ วินสัน) โดยทั้งสามช่วยกันคิดค้นท่วงท่าการเต้นที่พิเศษเพื่อ ใช้ในการแข่งขัน แต่แล้วก็ถูกทีมคู่ปรับขโมยนำไปใช้ มูส จึงตัดสินใจหันไปขอความช่วยเหลือจากเพื่อนๆ ในโรงเรียนเก่าของเขา ทีมเต้นไพเรท และ ทีมเต้นเอ็มเอสเอ ตัดสินใจร่วมมือกันแบบเฉพาะกิจ แต่พวกเขาจะสร้างท่วงท่าการเต้นเหนือจินตนาการได้ทัน เวลาหรือไม่? แล้วท่วงท่าการเต้นนั้นดีพอที่จะเอาชนะนักเต้นฝีมือด ีจากทั่วโลกได้หรือเปล่า? พิสูจน์การเต้นแห่งทศวรรษ

Complete name : [MINI-HD]_Step.Up.3D.3.2010.1080p.BDRip.DTS.x264.One2loadup.com.mkv
Format : Matroska
Format version : Version 4
File size : 8.62 GiB
Duration : 1 h 47 min
Overall bit rate : 11.5 Mb/s
Movie name : [MINI-HD]_Step.Up.3D.3.2010.1080p.BDRip.DTS.x264.One2loadup.com
Encoded date : UTC 2018-03-22 15:17:36
Writing application : mkvmerge v8.2.0 (‘World of Adventure’) 64bit
Writing library : libebml v1.3.1 + libmatroska v1.4.2

Video
ID : 1
Format : AVC
Format/Info : Advanced Video Codec
Format profile : [email protected]
Format settings : CABAC / 4 Ref Frames
Format settings, CABAC : Yes
Format settings, ReFrames : 4 frames
Codec ID : V_MPEG4/ISO/AVC
Duration : 1 h 47 min
Bit rate : 9 098 kb/s
Width : 1 920 pixels
Height : 1 080 pixels
Display aspect ratio : 16:9
Frame rate mode : Constant
Frame rate : 23.976 (24000/1001) FPS
Original frame rate : 23.976 (23976/1000) FPS
Color space : YUV
Chroma subsampling : 4:2:0
Bit depth : 8 bits
Scan type : Progressive
Bits/(Pixel*Frame) : 0.183
Stream size : 6.81 GiB (79%)
Title : [MINI-HD]_Step.Up.3D.3.2010.1080p.BDRip.DTS.x264.One2loadup.com
Writing library : x264 core 107 r1772 c9dad9e
Encoding settings : cabac=1 / ref=4 / deblock=1:0:0 / analyse=0x3:0x133 / me=umh / subme=7 / psy=1 / psy_rd=1.00:0.00 / mixed_ref=1 / me_range=16 / chroma_me=1 / trellis=1 / 8x8dct=1 / cqm=0 / deadzone=21,11 / fast_pskip=0 / chroma_qp_offset=-2 / threads=12 / sliced_threads=0 / nr=0 / decimate=1 / interlaced=0 / constrained_intra=0 / bframes=3 / b_pyramid=2 / b_adapt=1 / b_bias=0 / direct=1 / weightb=1 / open_gop=0 / weightp=2 / keyint=250 / keyint_min=23 / scenecut=40 / intra_refresh=0 / rc_lookahead=40 / rc=2pass / mbtree=1 / bitrate=9098 / ratetol=1.0 / qcomp=0.60 / qpmin=10 / qpmax=51 / qpstep=4 / cplxblur=20.0 / qblur=0.5 / ip_ratio=1.40 / aq=1:1.00
Language : English
Default : Yes
Forced : No

Audio #1
ID : 2
Format : AC-3
Format/Info : Audio Coding 3
Commercial name : Dolby Digital
Codec ID : A_AC3
Duration : 1 h 47 min
Bit rate mode : Constant
Bit rate : 448 kb/s
Channel(s) : 6 channels
Channel layout : L R C LFE Ls Rs
Sampling rate : 44.1 kHz
Frame rate : 28.711 FPS (1536 SPF)
Bit depth : 16 bits
Compression mode : Lossy
Stream size : 343 MiB (4%)
Title : Thai AC-3
Language : Thai
Service kind : Complete Main
Default : Yes
Forced : Yes

Audio #2
ID : 3
Format : DTS ES
Format/Info : Digital Theater Systems
Commercial name : DTS-ES Matrix
Codec ID : A_DTS
Duration : 1 h 47 min
Bit rate mode : Constant
Bit rate : 1 509 kb/s
Channel(s) : 6 channels
Channel(s)_Original : 7 channels
Channel layout : C L R Ls Rs Cb LFE
Sampling rate : 48.0 kHz
Frame rate : 93.750 FPS (512 SPF)
Bit depth : 24 bits
Compression mode : Lossy
Stream size : 1.13 GiB (13%)
Title : Eng DTS
Language : English
Default : No
Forced : No

Audio #3
ID : 4
Format : AC-3
Format/Info : Audio Coding 3
Commercial name : Dolby Digital
Codec ID : A_AC3
Duration : 1 h 47 min
Bit rate mode : Constant
Bit rate : 448 kb/s
Channel(s) : 6 channels
Channel layout : L R C LFE Ls Rs
Sampling rate : 48.0 kHz
Frame rate : 31.250 FPS (1536 SPF)
Bit depth : 16 bits
Compression mode : Lossy
Stream size : 343 MiB (4%)
Title : Eng AC-3
Language : English
Service kind : Complete Main
Default : No
Forced : No

Text #1
ID : 5
Format : VobSub
Muxing mode : zlib
Codec ID : S_VOBSUB
Codec ID/Info : Picture based subtitle format used on DVDs
Duration : 1 h 38 min
Bit rate : 3 850 b/s
Count of elements : 1372
Stream size : 2.72 MiB (0%)
Title : Thai
Language : Thai
Default : No
Forced : No

Text #2
ID : 6
Format : VobSub
Muxing mode : zlib
Codec ID : S_VOBSUB
Codec ID/Info : Picture based subtitle format used on DVDs
Duration : 1 h 38 min
Bit rate : 1 492 b/s
Count of elements : 1372
Stream size : 1.06 MiB (0%)
Title : Thai
Language : Thai
Default : No
Forced : No

Text #3
ID : 7
Format : VobSub
Muxing mode : zlib
Codec ID : S_VOBSUB
Codec ID/Info : Picture based subtitle format used on DVDs
Duration : 1 h 38 min
Bit rate : 3 850 b/s
Count of elements : 1372
Stream size : 2.72 MiB (0%)
Title : Thai Out
Language : Thai
Default : No
Forced : No

Text #4
ID : 8
Format : PGS
Muxing mode : zlib
Codec ID : S_HDMV/PGS
Codec ID/Info : Picture based subtitle format used on BDs/HD-DVDs
Duration : 1 h 38 min
Bit rate : 5 239 b/s
Count of elements : 2744
Stream size : 3.70 MiB (0%)
Title : Thai PGS
Language : Thai
Default : No
Forced : No

Text #5
ID : 9
Format : UTF-8
Codec ID : S_TEXT/UTF8
Codec ID/Info : UTF-8 Plain Text
Duration : 1 h 39 min
Bit rate : 60 b/s
Count of elements : 1240
Stream size : 43.8 KiB (0%)
Title : Eng SRT
Language : English
Default : No
Forced : No

Text #6
ID : 10
Format : UTF-8
Codec ID : S_TEXT/UTF8
Codec ID/Info : UTF-8 Plain Text
Duration : 1 h 39 min
Bit rate : 38 b/s
Count of elements : 866
Stream size : 28.2 KiB (0%)
Title : Swedish
Language : Swedish
Default : No
Forced : No

Menu
00:00:00.000 : :Chapter 1
00:05:00.000 : :Chapter 2
00:10:00.000 : :Chapter 3
00:15:00.000 : :Chapter 4
00:20:00.000 : :Chapter 5
00:25:00.000 : :Chapter 6
00:30:00.000 : :Chapter 7
00:35:00.000 : :Chapter 8
00:40:00.000 : :Chapter 9
00:45:00.000 : :Chapter 10
00:50:00.000 : :Chapter 11
00:55:00.000 : :Chapter 12
01:00:00.000 : :Chapter 13
01:05:00.000 : :Chapter 14
01:10:00.000 : :Chapter 15
01:15:00.000 : :Chapter 16
01:20:00.000 : :Chapter 17
01:25:00.000 : :Chapter 18
01:30:00.000 : :Chapter 19
01:35:00.000 : :Chapter 20
01:40:00.000 : :Chapter 21
01:45:00.000 : :Chapter 22

DOWNLOAD


PART01 |||| PART02 |||| PART03 |||| PART04 |||| PART05

PART01 |||| PART02 |||| PART03 |||| PART04 |||| PART05

PART01 |||| PART02 |||| PART03 |||| PART04 |||| PART05

PART01 |||| PART02 |||| PART03 |||| PART04 |||| PART05


Leave A Reply

Your email address will not be published.

%d bloggers like this: