[MINI-HD] Spirit Untamed (2021) สปิริต ม้าพยศหัวใจแกร่ง [1080p] [พากย์ไทย 5.1 + เสียงอังกฤษ 5.1] [บรรยายอังกฤษ] [เสียงไทย + ซับอังกฤษ] [USERLOAD]

0

โหลดหนัง Spirit Untamed (2021) สปิริต ม้าพยศหัวใจแกร่ง

Spirit Untamed 88min | Animation, Adventure, Comedy, Family, Western | June 4, 2021 (United States) Summary: Lucky Prescott's life is changed forever when she moves from her home in the city to a small frontier town and befriends a wild mustang named Spirit.
Countries: United States, JapanLanguages: English

เรื่องย่อ Spirit Untamed (2021) สปิริต ม้าพยศหัวใจแกร่ง

ลัคกี้ เพรสคอตต์ (พากย์เสียงโดย อิซาเบลล่า เมอร์เซด) ไม่รู้จักแม่ที่เสียชีวิตไปแล้ว มิลาโกร เนวาร์โร (พากย์เสียงโดย อีซา กอนซาเลซ) นักแสดงผาดโผนที่ขี่ม้าโดยปราศจากความกลัวเธอมาจาก มิราเดโร เมืองเล็ก ๆ ริมพรมแดนที่เปิดกว้าง เช่นเดียวกับแม่ของเธอ ลัคกี้ ไม่ได้สนใจเรื่องการทำตามกฎและข้อบังคับซึ่งทำให้ คอร่า ป้าของเธอ (พากย์เสียงโดย จูลีแอนน์ มัวร์)ไม่ห่วงเธอสักเท่าไร ลัคกี้ เติบโตในเมืองชายฝั่งตะวันออกโดยมี คอร่า จับตาดูอยู่ แต่เมื่อ ลัคกี้ เริ่มมีพฤติกรรมทำอะไรแบบกล้าและบ้าบิ่น คอร่า จึงยอมเสี่ยงและย้ายกลับมาอยู่กับ จิม พ่อของลัคกี้ (พากย์เสียงโดย เจค จิลเลนฮาล) ที่มิราเดโร ลัคกี้ ไม่ค่อยประทับใจเมืองเล็ก ๆ เงียบ ๆ แต่ก็เปลี่ยนใจ เมื่อได้พบกับ สปิริต ม้าป่าซึ่งเธอใช้เวลาด้วยอย่างอิสระ และเธอได้เป็นเพื่อนกับนักขี่ม้าท้องถิ่น อาบิเกล สโตน (พากย์เสียงโดย แม็คเคนนา เกรซ) และพรู แกรนเจอร์ (พากย์เสียงโดย มาร์ไซ มาร์ติน) อัล แกรนเจอร์ (พากย์เสียงโดย อังเดร บราวเกอร์)พ่อของพรูเป็นเจ้าของคอกม้า เป็นเพื่อนสนิทกับ พ่อของลัคกี้ เมื่อ โคบาล ใจร้าย (พากย์เสียงโดย วอลตัน ก๊อกกินส์) และทีมของเขาวางแผนที่จะจับสปิริตและฝูงม้าตัวอื่น และนำม้าเหล่านี้ไปออกประมูล โดยมีชีวิตที่ถูกจองจำและต้องทำงานหนัก ลัคกี้ จึงขอความช่วยเหลือจากเพื่อนใหม่และเริ่มการผจญภัยอย่างกล้าหาญ เพื่อช่วยเหลือม้าให้เป็นอิสระ ลัคกี้ ได้ค้นพบความเชื่อมโยงกับเรื่องราวของแม่และรากเหง้า ความเป็นเม็กซิกันของเธอซึ่งเธอไม่เคยคาดคิดมาก่อน

Complete name : [MINI-HD]_Spirit.Untamed.2021.1080p.WEBRip.AC3.x264.One2loadup.com.mkv
Format : Matroska
Format version : Version 4
File size : 3.93 GiB
Duration : 1 h 27 min
Overall bit rate : 6 416 kb/s
Movie name : [MINI-HD]_Spirit.Untamed.2021.1080p.WEBRip.AC3.x264.One2loadup.com
Encoded date : UTC 2021-09-24 09:46:52
Writing application : mkvmerge v61.0.0 (‘So’) 64-bit
Writing library : libebml v1.4.2 + libmatroska v1.6.4
Cover : Yes
Attachments : cover

Video
ID : 1
Format : AVC
Format/Info : Advanced Video Codec
Format profile : [email protected]
Format settings : CABAC / 4 Ref Frames
Format settings, CABAC : Yes
Format settings, Reference : 4 frames
Codec ID : V_MPEG4/ISO/AVC
Duration : 1 h 27 min
Bit rate : 2 500 kb/s
Width : 1 920 pixels
Height : 800 pixels
Display aspect ratio : 2.40:1
Frame rate mode : Constant
Frame rate : 23.976 (23976/1000) FPS
Color space : YUV
Chroma subsampling : 4:2:0
Bit depth : 8 bits
Scan type : Progressive
Bits/(Pixel*Frame) : 0.068
Stream size : 1.53 GiB (39%)
Title : [MINI-HD]_Spirit.Untamed.2021.1080p.WEBRip.AC3.x264.One2loadup.com
Writing library : x264 core 152 r2851M ba24899
Encoding settings : cabac=1 / ref=4 / deblock=1:-1:-1 / analyse=0x3:0x113 / me=umh / subme=9 / psy=1 / psy_rd=1.00:0.15 / mixed_ref=1 / me_range=24 / chroma_me=1 / trellis=2 / 8x8dct=1 / cqm=0 / deadzone=21,11 / fast_pskip=1 / chroma_qp_offset=-3 / threads=32 / lookahead_threads=4 / sliced_threads=0 / nr=0 / decimate=1 / interlaced=0 / bluray_compat=0 / constrained_intra=0 / bframes=3 / b_pyramid=2 / b_adapt=2 / b_bias=0 / direct=3 / weightb=1 / open_gop=0 / weightp=2 / keyint=250 / keyint_min=25 / scenecut=40 / intra_refresh=0 / rc_lookahead=50 / rc=2pass / mbtree=1 / bitrate=2500 / ratetol=1.0 / qcomp=0.60 / qpmin=0 / qpmax=69 / qpstep=4 / cplxblur=20.0 / qblur=0.5 / vbv_maxrate=31250 / vbv_bufsize=31250 / nal_hrd=none / filler=0 / ip_ratio=1.40 / aq=3:1.00
Language : English
Default : Yes
Forced : No

Audio #1
ID : 2
Format : AC-3
Format/Info : Audio Coding 3
Commercial name : Dolby Digital
Codec ID : A_AC3
Duration : 1 h 27 min
Bit rate mode : Constant
Bit rate : 640 kb/s
Channel(s) : 6 channels
Channel layout : L R C LFE Ls Rs
Sampling rate : 44.1 kHz
Frame rate : 28.711 FPS (1536 SPF)
Compression mode : Lossy
Delay relative to video : -43 ms
Stream size : 401 MiB (10%)
Title : Th.5.1.AC3.640k
Language : Thai
Service kind : Complete Main
Default : Yes
Forced : No

Audio #2
ID : 3
Format : AAC LC
Format/Info : Advanced Audio Codec Low Complexity
Codec ID : A_AAC-2
Duration : 1 h 27 min
Bit rate : 224 kb/s
Channel(s) : 6 channels
Channel layout : C L R Ls Rs LFE
Sampling rate : 48.0 kHz
Frame rate : 46.875 FPS (1024 SPF)
Compression mode : Lossy
Delay relative to video : -43 ms
Stream size : 140 MiB (3%)
Title : En.AAC:224 kb/s.6 channels
Language : English
Default : Yes
Forced : No

Audio #3
ID : 4
Format : AAC LC
Format/Info : Advanced Audio Codec Low Complexity
Codec ID : A_AAC-2
Duration : 1 h 27 min
Bit rate : 384 kb/s
Channel(s) : 6 channels
Channel layout : C L R Ls Rs LFE
Sampling rate : 48.0 kHz
Frame rate : 46.875 FPS (1024 SPF)
Compression mode : Lossy
Delay relative to video : -43 ms
Stream size : 241 MiB (6%)
Title : Th.AAC:384 kb/s.6 channels
Language : Thai
Default : Yes
Forced : No

Audio #4
ID : 5
Format : DTS
Format/Info : Digital Theater Systems
Codec ID : A_DTS
Duration : 1 h 27 min
Bit rate mode : Constant
Bit rate : 2 646 kb/s
Channel(s) : 6 channels
Channel layout : C L R Ls Rs LFE
Sampling rate : 32.0 kHz
Frame rate : 31.250 FPS (1024 SPF)
Bit depth : 16 bits
Compression mode : Lossy
Delay relative to video : -43 ms
Stream size : 1.62 GiB (41%)
Title : En.DTS.5.1Sample Rate 32000
Language : English
Default : Yes
Forced : No

Text #1
ID : 6
Format : VobSub
Muxing mode : zlib
Codec ID : S_VOBSUB
Codec ID/Info : Picture based subtitle format used on DVDs
Duration : 1 h 26 min
Bit rate : 16.7 kb/s
Count of elements : 1674
Stream size : 10.3 MiB (0%)
Title : EN.120.2.83.Green
Language : English
Default : Yes
Forced : No

Text #2
ID : 7
Format : VobSub
Muxing mode : zlib
Codec ID : S_VOBSUB
Codec ID/Info : Picture based subtitle format used on DVDs
Duration : 1 h 27 min
Bit rate : 20.6 kb/s
Count of elements : 2042
Stream size : 12.9 MiB (0%)
Title : EN.SDH.120.2.83.Yellow
Language : English
Default : Yes
Forced : No

DOWNLOAD


PART01 |||| PART02 |||| PART03 |||| PART04 |||| PART05

PART01 |||| PART02 |||| PART03 |||| PART04 |||| PART05

PART01 |||| PART02 |||| PART03 |||| PART04 |||| PART05

PART01 |||| PART02 |||| PART03 |||| PART04 |||| PART05

PART01 |||| PART02 |||| PART03 |||| PART04 |||| PART05


Leave A Reply

อีเมล์ของคุณจะไม่แสดงให้เห็น Your email address will not be published.

%d bloggers like this: