[MINI-HD] Slumboy-Soi-Teeed (2017) สลัมบอย ซอยตื๊ด [1080p] [พากย์ไทย 2.0] [WEB-DL] [เสียงไทยมาสเตอร์] [PANDAFILE]

2

Slumboy-Soi-Teeed (2017) สลัมบอย ซอยตื๊ด

โหลดหนัง Slumboy-Soi-Teeed (2017) สลัมบอย ซอยตื๊ด

Slumboy-Soi-Teeed | July 20, 2017 (Thailand)
Summary:
Countries: ThailandLanguages: English

เรื่องย่อ Slumboy-Soi-Teeed (2017) สลัมบอย ซอยตื๊ด

ภาพยนตร์ไทยตลกคอมเมดี้เรื่องใหม่ที่ติดอาวุธความฮาที่มีประสิทธิภาพ ร้ายแรงกว่าที่คุณคาดคิด พร้อมจะระเบิดความฮาให้กระจายไปทุกที่นั่งให้ฮาแบบหงายหลัง ซึ่งเรื่องนี้เราได้นักแสดงตลกน้ำดีระดับแถวหน้าของเมืองไทยมาร่วมแสดงกันในครั้งนี้ทั้ง แจ๊ส ชวนชื่น, น้าค่อม ชวนชื่น, โรเบิร์ต สายควัน, พัน พลุแตก, น้องปุณต์, น้องเบียร์ เดอะวอยซ์, น้องจุง ซูเปอร์เท็น นักกีตาร์ตัวจิ๋วจากรายการซูเปอร์เท็นและยังมีนักแสดงคนอื่นๆ อีกหลายคนที่จะมาร่วมถ่ายทอดความตื๊ดกันทั้งเรื่อง!!

Complete name : [MINI-HD]_Slumboy.Soi.Teeed.2017.1080p.WEB-DL.TH2.0.One2loadup.com.mp4
Format : MPEG-4
Format profile : Base Media
Codec ID : isom (isom/iso2/avc1/mp41)
File size : 4.64 GiB
Duration : 1 h 26 min
Overall bit rate mode : Variable
Overall bit rate : 7 633 kb/s
Encoded date : UTC 2019-01-27 08:57:53
Tagged date : UTC 2019-01-27 08:57:53
Writing application : Lavf51.12.1

Video
ID : 1
Format : AVC
Format/Info : Advanced Video Codec
Format profile : [email protected]
Format settings : 1 Ref Frames
Format settings, CABAC : No
Format settings, ReFrames : 1 frame
Format settings, GOP : M=1, N=12
Codec ID : avc1
Codec ID/Info : Advanced Video Coding
Duration : 1 h 26 min
Bit rate mode : Variable
Bit rate : 7 495 kb/s
Maximum bit rate : 4 500 kb/s
Width : 1 920 pixels
Height : 1 080 pixels
Display aspect ratio : 16:9
Frame rate mode : Constant
Frame rate : 60.000 FPS
Original frame rate : 24.000 FPS
Color space : YUV
Chroma subsampling : 4:2:0
Bit depth : 8 bits
Scan type : Progressive
Bits/(Pixel*Frame) : 0.060
Stream size : 4.55 GiB (98%)
Encoded date : UTC 2019-01-27 08:57:53
Tagged date : UTC 2019-01-27 08:57:53
Codec configuration box : avcC

Audio
ID : 2
Format : AAC LC
Format/Info : Advanced Audio Codec Low Complexity
Codec ID : mp4a-40-2
Duration : 1 h 26 min
Bit rate mode : Variable
Bit rate : 127 kb/s
Channel(s) : 2 channels
Channel layout : L R
Sampling rate : 44.1 kHz
Frame rate : 43.066 FPS (1024 SPF)
Compression mode : Lossy
Stream size : 79.2 MiB (2%)
Encoded date : UTC 2019-01-27 08:57:53
Tagged date : UTC 2019-01-27 08:57:53

DOWNLOAD


PART01 |||| PART02 |||| PART03 |||| PART04 |||| PART05

PART01 |||| PART02 |||| PART03 |||| PART04 |||| PART05

PART01 |||| PART02 |||| PART03 |||| PART04 |||| PART05

PART01 |||| PART02 |||| PART03 |||| PART04 |||| PART05

PART01 |||| PART02 |||| PART03 |||| PART04 |||| PART05


2 Comments
  1. ha says

    ลิงค์เสียหมดแล้ว ช่วยอัพใหม่ได้มั้ยครับ ขอบคุณครับ

    1. Admin
      Admin says

      แก้ไขเรียบร้อยฮ๊ะ

Leave A Reply

อีเมล์ของคุณจะไม่แสดงให้เห็น Your email address will not be published.

%d bloggers like this: