[MINI-HD] Slither (2006) เลื้อย ดุ [1080p] [พากย์ไทย 5.1 + เสียงอังกฤษ 5.1] [บรรยายไทย + อังกฤษ] [เสียงไทย + ซับไทย] [OPENLOAD]

0

โหลดหนัง Slither (2006) เลื้อย ดุ

Slither (2006) 1h 35min | Comedy, Horror, Sci-Fi | 31 March 2006 (USA) Summary: A small town is taken over by an alien plague, turning residents into zombies and all forms of mutant monsters.
Countries: Canada, USALanguages: English

เรื่องย่อ Slither (2006) เลื้อย ดุ

วีห์ลซี่ ก็เหมือนเมืองเล็กๆทั่วไปในอเมริกาที่สงบ สวยงาม และผู้คนรักสันโดษ แต่เบื้องหลังเสน่ห์เหล่านี้ สิ่งแปลกปลอมและชั่วร้ายบางอย่างได้เดินทางมาถึง และค่อยๆเจริญเติบโต ดูเหมือนไม่มีใครสังเกตว่าเสาโทรศัพท์ถูกกีดขวางและชายที่รวยที่สุดอย่าง แกรนต์ แกรนต์ เริ่มมีพฤติกรรมประหลาด แต่เมื่อสัตว์เลี้ยงของชาวนาถูกทำร้ายอย่างสยดสยองและหญิงสาวเริ่มหายตัวไปอย่างลึกลับ นายอำเภอ บิล พาร์ดี และคนของเขา จึงต้องร่วมมือกันค้นหาความจริงว่าอะไรกำลังบุกเมืองแสนสงบของพวกเขาด้วยความช่วยเหลือจาก สตาร์ลา ภรรยาของแกรนต์ สิ่งที่คนเหล่านี้ต้องเผชิญคือ สิ่งมีชีวิตสุดสยองจากนอกโลกที่ต้องการเขมือบทุกชีวิตบนโลกนี้ให้สิ้นซาก

Complete name : [MINI-HD]_Slither.2006.1080p.AC3.x264.One2loadup.com.mkv
Format : Matroska
Format version : Version 4
File size : 1.98 GiB
Duration : 1 h 35 min
Overall bit rate : 2 961 kb/s
Movie name : [MINI-HD]_Slither.2006.1080p.AC3.x264.One2loadup.com
Encoded date : UTC 2017-11-20 09:34:19
Writing application : mkvmerge v18.0.0 (‘Apricity’) 64-bit
Writing library : libebml v1.3.5 + libmatroska v1.4.8

Video
ID : 1
Format : AVC
Format/Info : Advanced Video Codec
Format profile : [email protected]
Format settings : CABAC / 4 Ref Frames
Format settings, CABAC : Yes
Format settings, ReFrames : 4 frames
Codec ID : V_MPEG4/ISO/AVC
Duration : 1 h 35 min
Bit rate : 2 050 kb/s
Width : 1 920 pixels
Height : 1 040 pixels
Display aspect ratio : 1.85:1
Frame rate mode : Constant
Frame rate : 23.976 (24000/1001) FPS
Color space : YUV
Chroma subsampling : 4:2:0
Bit depth : 8 bits
Scan type : Progressive
Bits/(Pixel*Frame) : 0.043
Stream size : 1.37 GiB (69%)
Title : [MINI-HD]_Slither.2006.1080p.AC3.x264.One2loadup.com
Writing library : x264 core 148
Encoding settings : cabac=1 / ref=4 / deblock=1:-1:-1 / analyse=0x3:0x133 / me=umh / subme=9 / psy=1 / psy_rd=1.00:0.15 / mixed_ref=1 / me_range=24 / chroma_me=1 / trellis=2 / 8x8dct=1 / cqm=0 / deadzone=21,11 / fast_pskip=0 / chroma_qp_offset=-3 / threads=12 / lookahead_threads=1 / sliced_threads=0 / nr=0 / decimate=1 / interlaced=0 / bluray_compat=0 / constrained_intra=0 / bframes=3 / b_pyramid=2 / b_adapt=2 / b_bias=0 / direct=3 / weightb=1 / open_gop=0 / weightp=2 / keyint=250 / keyint_min=23 / scenecut=40 / intra_refresh=0 / rc_lookahead=60 / rc=2pass / mbtree=1 / bitrate=2050 / ratetol=1.0 / qcomp=0.60 / qpmin=0 / qpmax=69 / qpstep=4 / cplxblur=20.0 / qblur=0.5 / vbv_maxrate=31250 / vbv_bufsize=31250 / nal_hrd=none / filler=0 / ip_ratio=1.40 / aq=1:1.00
Default : Yes
Forced : No

Audio #1
ID : 2
Format : AC-3
Format/Info : Audio Coding 3
Commercial name : Dolby Digital
Codec ID : A_AC3
Duration : 1 h 35 min
Bit rate mode : Constant
Bit rate : 448 kb/s
Channel(s) : 6 channels
Channel layout : L R C LFE Ls Rs
Sampling rate : 48.0 kHz
Frame rate : 31.250 FPS (1536 SPF)
Bit depth : 16 bits
Compression mode : Lossy
Delay relative to video : 1 s 300 ms
Stream size : 306 MiB (15%)
Language : English
Service kind : Complete Main
Default : Yes
Forced : No

Audio #2
ID : 3
Format : AC-3
Format/Info : Audio Coding 3
Commercial name : Dolby Digital
Codec ID : A_AC3
Duration : 1 h 35 min
Bit rate mode : Constant
Bit rate : 448 kb/s
Channel(s) : 6 channels
Channel layout : L R C LFE Ls Rs
Sampling rate : 48.0 kHz
Frame rate : 31.250 FPS (1536 SPF)
Bit depth : 16 bits
Compression mode : Lossy
Delay relative to video : 1 s 350 ms
Stream size : 306 MiB (15%)
Language : Thai
Service kind : Complete Main
Default : No
Forced : No

Text #1
ID : 4
Format : UTF-8
Codec ID : S_TEXT/UTF8
Codec ID/Info : UTF-8 Plain Text
Duration : 1 h 26 min
Bit rate : 42 b/s
Count of elements : 875
Stream size : 26.9 KiB (0%)
Language : English
Default : Yes
Forced : No

Text #2
ID : 5
Format : VobSub
Muxing mode : zlib
Codec ID : S_VOBSUB
Codec ID/Info : Picture based subtitle format used on DVDs
Duration : 1 h 26 min
Bit rate : 5 754 b/s
Count of elements : 900
Stream size : 3.56 MiB (0%)
Title : 1080p
Language : Thai
Default : No
Forced : No

Text #3
ID : 6
Format : PGS
Muxing mode : zlib
Codec ID : S_HDMV/PGS
Codec ID/Info : Picture based subtitle format used on BDs/HD-DVDs
Duration : 1 h 26 min
Bit rate : 23.9 kb/s
Count of elements : 1800
Stream size : 14.8 MiB (1%)
Title : PGS 1080p
Language : Thai
Default : No
Forced : No

Text #4
ID : 7
Format : UTF-8
Codec ID : S_TEXT/UTF8
Codec ID/Info : UTF-8 Plain Text
Duration : 1 h 26 min
Bit rate : 82 b/s
Count of elements : 900
Stream size : 52.3 KiB (0%)
Language : Thai
Default : No
Forced : No

DOWNLOAD


PART01 |||| PART02 |||| PART03

PART01 |||| PART02 |||| PART03

PART01 |||| PART02 |||| PART03

PART01 |||| PART02 |||| PART03


Leave A Reply

Your email address will not be published.

%d bloggers like this: