[MINI-HD] Sinbad Legend of The Seven Seas (2003) ซินแบด พิชิตตำนาน 7 คาบสมุทร [720p] [พากย์ไทย 5.1 + เสียงอังกฤษ 5.1] [บรรยายอังกฤษ + เวียดนาม] [เสียงไทย + ซับ ENG] [OPENLOAD]

2

โหลดหนัง Sinbad Legend of The Seven Seas (2003) ซินแบด พิชิตตำนาน 7 คาบสมุทร

Sinbad: Legend of the Seven Seas (2003) 1h 26min | Animation, Adventure, Family | 17 July 2003 (Netherlands) Summary: The sailor of legend is framed by the goddess Eris for the theft of the Book of Peace, and must travel to her realm at the end of the world to retrieve it and save the life of his childhood friend Prince Proteus.
Countries: USALanguages: English, Cantonese, Italian

เรื่องย่อ Sinbad Legend of The Seven Seas (2003) ซินแบด พิชิตตำนาน 7 คาบสมุทร

พร้อมรับความสนุกสุดหรรษา ความตื่นเต้นไม่รู้จบและมุขตลกจากท้องทะเลหลวง รวมกับความตระการตาจากเทพนิยายสุดคลาสสิก ติดตามฮีโร่จอมซ่าของเรา ซินแบด, สไปก์ เจ้าหมาน้อยแสนซื่อสัตย์(แต่ชอบน้ำลายยืด)และเจ้าหญิงมารีน่าผู้กล้าหาญ กับการต่อสู้ของเพวกเค้ากับเทพธิดาแห่งความยุ่งเหยิง และเหล่าสัตว์ประหลาดที่ แสนร้ายกาจของเธอ เพื่อปกป้องชีวิตเพื่อนสนิทของพวกเขาซินแบด ความบันเทิงไม่มีหยุดที่นำพาความหรรษามาสู่ทั้งครอบครัว!

Complete name : [MINI-HD]_Sinbad.Legend.of.the.Seven.Seas.2003.720p.BrRip.AC3.One2loadup.com.mkv
Format : Matroska
Format version : Version 4
File size : 2.87 GiB
Duration : 1 h 25 min
Overall bit rate : 4 810 kb/s
Movie name : [MINI-HD]_Sinbad.Legend.of.the.Seven.Seas.2003.720p.BrRip.AC3.One2loadup.com
Encoded date : UTC 2016-12-06 08:07:15
Writing application : mkvmerge v6.0.0 (‘Coming Up For Air’) built on Jan 20 2013 09:52:00
Writing library : libebml v1.3.0 + libmatroska v1.4.0

Video
ID : 1
Format : AVC
Format/Info : Advanced Video Codec
Format profile : [email protected]
Format settings : 2 Ref Frames
Format settings, CABAC : No
Format settings, ReFrames : 2 frames
Codec ID : V_MPEG4/ISO/AVC
Duration : 1 h 25 min
Bit rate : 4 138 kb/s
Width : 1 278 pixels
Height : 720 pixels
Display aspect ratio : 16:9
Frame rate mode : Constant
Frame rate : 23.976 FPS
Color space : YUV
Chroma subsampling : 4:2:0
Bit depth : 8 bits
Scan type : Progressive
Bits/(Pixel*Frame) : 0.188
Stream size : 2.47 GiB (86%)
Title : [MINI-HD]_Sinbad.Legend.of.the.Seven.Seas.2003.720p.BrRip.AC3.One2loadup.com
Language : English
Default : Yes
Forced : No
Color range : Limited
Color primaries : BT.709
Transfer characteristics : BT.709
Matrix coefficients : BT.709

Audio #1
ID : 2
Format : AC-3
Format/Info : Audio Coding 3
Commercial name : Dolby Digital
Codec ID : A_AC3
Duration : 1 h 25 min
Bit rate mode : Constant
Bit rate : 384 kb/s
Channel(s) : 6 channels
Channel layout : L R C LFE Ls Rs
Sampling rate : 48.0 kHz
Frame rate : 31.250 FPS (1536 SPF)
Bit depth : 16 bits
Compression mode : Lossy
Stream size : 234 MiB (8%)
Title : Eng
Language : English
Service kind : Complete Main
Default : Yes
Forced : No

Audio #2
ID : 3
Format : AC-3
Format/Info : Audio Coding 3
Commercial name : Dolby Digital
Codec ID : A_AC3
Duration : 1 h 25 min
Bit rate mode : Constant
Bit rate : 192 kb/s
Channel(s) : 6 channels
Channel layout : L R C LFE Ls Rs
Sampling rate : 48.0 kHz
Frame rate : 31.250 FPS (1536 SPF)
Bit depth : 16 bits
Compression mode : Lossy
Stream size : 117 MiB (4%)
Title : Th
Language : Thai
Service kind : Complete Main
Default : No
Forced : No

Text #1
ID : 4
Format : UTF-8
Codec ID : S_TEXT/UTF8
Codec ID/Info : UTF-8 Plain Text
Title : Eng
Language : English
Default : Yes
Forced : No

Text #2
ID : 5
Format : UTF-8
Codec ID : S_TEXT/UTF8
Codec ID/Info : UTF-8 Plain Text
Title : VN
Language : Vietnamese
Default : No
Forced : No

Menu
00:00:00.000 : en:Chapter 1
00:03:22.000 : en:Chapter 2
00:05:35.000 : en:Chapter 3
00:09:07.000 : en:Chapter 4
00:13:45.000 : en:Chapter 5
00:16:14.000 : en:Chapter 6
00:19:53.000 : en:Chapter 7
00:23:13.000 : en:Chapter 8
00:27:25.000 : en:Chapter 9
00:30:12.000 : en:Chapter 10
00:34:08.000 : en:Chapter 11
00:38:00.000 : en:Chapter 12
00:42:55.000 : en:Chapter 13
00:45:29.000 : en:Chapter 14
00:47:01.000 : en:Chapter 15
00:49:55.000 : en:Chapter 16
00:52:42.000 : en:Chapter 17
00:55:56.000 : en:Chapter 18
01:00:33.000 : en:Chapter 19
01:06:04.000 : en:Chapter 20
01:07:50.000 : en:Chapter 21
01:10:17.000 : en:Chapter 22
01:14:46.000 : en:Chapter 23
01:17:54.000 : en:Chapter 24

DOWNLOAD


PART01 |||| PART02 |||| PART03

PART01 |||| PART02 |||| PART03

PART01 |||| PART02 |||| PART03

PART01 |||| PART02 |||| PART03


2 Comments
  1. Yogurt Angel
    Yogurt Angel says

    ขอบคุณค่ะ ชอบเรื่องนี้ ดูตั้งแต่ตอนเป็นแผ่น DVD สมัยนั้นภาพระดับนี้เป็นอะไรที่ตื่นตาตื่นใจมากๆ ย้อนกลับมาดูก็ยังสนุกอยู่ดี
    แต่ว่า … ตั้งชื่อเรื่องบอกว่า 1080p แต่พอโหลดเสร็จแล้วเป็น 720p นะคะ พอมาดูรายละเอียดที่ใส่ไว้ด้านบน ก็เป็น 720p จริงๆด้วย
    Width : 1 278 pixels
    Height : 720 pixels

    1. Admin
      Admin says

      ^ ู^ ต้องขออภัยสำหรับหัวเรื่องด้วยฮ๊ะ น่าจะมาจาก อีกเรื่องมันเป็น 1080p พอดีอัพพร้อมกัน เลยงงใส่มั่วแต่ในไฟล์ก็ 720p ใส่ถูกต้อง อิอิ ต้องขอภัยจิมๆ

Leave A Reply

Your email address will not be published.

%d bloggers like this: