[MINI-HD] Shrek Forever After (2010) เชร็ค สุขสันต์ นิรันดร [1080p] [พากย์ไทย 5.1 + เสียงอังกฤษ 5.1] [บรรยายไทย + อังกฤษ] [เสียงไทย + ซับไทย] [PANDAFILE]

2

โหลดหนัง Shrek Forever After (2010) เชร็ค สุขสันต์ นิรันดร

Shrek Forever After | May 21, 2010 (United States) Summary: Rumpelstiltskin tricks a mid-life crisis burdened Shrek into allowing himself to be erased from existence and cast in a dark alternate timeline where Rumpelstiltskin rules supreme.
Countries: United StatesLanguages: English

เรื่องย่อ Shrek Forever After (2010) เชร็ค สุขสันต์ นิรันดร

เชร็ค (ไมค์ ไมเยอร์ส) กลายมาเป็นคุณพ่อที่แสนจะรักครอบครัว และแทนที่จะเสียเวลากับการออกไปทำให้ชาวบ้านชาวช่องตกใจกลัวเหมือนในอดีต ยักษ์ตัวเขียวกลับอกกลับใจมาแจกลายเซ็นอย่างใจดีแทน (แม้จะไม่ค่อยเต็มใจนักก็เถอะ) แต่ในใจลึกๆ เชร็คยังคงถวิลหาวันคืนเก่าๆ ที่เขารู้สึกเหมือน “ยักษ์ตัวจริงเสียงจริง” และแล้ว เชร็ค โดนจอมจ้อ รัมเพลสติลท์สกิน (พอล แม็คคาร์ทนี่ย์) หลอกล่อให้เซ็นสัญญา ซึ่งทำให้จู่ๆ เชร็ค ก็พบว่าตัวเองอยู่ในนครฟาร์ฟาร์อะเวย์ที่ไม่เหมือนที่เคยเป็น ในนครแห่งนี้ ยักษ์เขียวโดนตามล่า รัมเพลสติลท์สกิน กลายเป็นพระราชา ส่วนเชร็ค กับ ฟีโอน่า (คาเมรอน ดิแอซ) ไม่เคยพบกันมาก่อน เอาละสิ ทีนี้ก็ขึ้นอยู่กับเชร็ค เท่านั้นที่จะแก้ไขกลโกงของรัมเพลสติลท์สกิน เพื่อช่วยเพื่อนๆ ของเขา แย่งโลกใบเก่าของเขากลับคืนมา รวมถึงกลับมาทวงรักแท้และครอบครัวสุดที่รักคืนมาด้วย

Complete name : [MINI-HD]_Shrek.Forever.After.2010.×264.One2loadup.com.mkv
Format : Matroska
Format version : Version 4 / Version 2
File size : 3.47 GiB
Duration : 1 h 33 min
Overall bit rate : 5 337 kb/s
Encoded date : UTC 2017-03-13 08:25:33 / UTC 2017-03-13T06:18:10Z
Writing application : mkvmerge v8.3.0 (‘Over the Horizon’) 64bit
Writing library : libebml v1.3.1 + libmatroska v1.4.2 / Lavf55.12.0

Video
ID : 1
Format : AVC
Format/Info : Advanced Video Codec
Format profile : [email protected]
Format settings, CABAC : Yes
Format settings, RefFrames : 4 frames
Codec ID : V_MPEG4/ISO/AVC
Duration : 1 h 33 min
Bit rate : 3 311 kb/s
Width : 1 920 pixels
Height : 816 pixels
Display aspect ratio : 2.35:1
Frame rate mode : Constant
Frame rate : 23.976 (24000/1001) FPS
Color space : YUV
Chroma subsampling : 4:2:0
Bit depth : 8 bits
Scan type : Progressive
Bits/(Pixel*Frame) : 0.088
Stream size : 2.15 GiB (62%)
Writing library : x264 core 142 r2479 dd79a61
Encoding settings : cabac=1 / ref=1 / deblock=1:0:0 / analyse=0x1:0x111 / me=hex / subme=2 / psy=1 / psy_rd=1.00:0.00 / mixed_ref=0 / me_range=16 / chroma_me=1 / trellis=0 / 8x8dct=0 / cqm=0 / deadzone=21,11 / fast_pskip=1 / chroma_qp_offset=0 / threads=12 / lookahead_threads=4 / sliced_threads=0 / nr=0 / decimate=1 / interlaced=0 / bluray_compat=0 / constrained_intra=0 / bframes=3 / b_pyramid=2 / b_adapt=1 / b_bias=0 / direct=1 / weightb=1 / open_gop=0 / weightp=1 / keyint=240 / keyint_min=24 / scenecut=40 / intra_refresh=0 / rc_lookahead=10 / rc=crf / mbtree=1 / crf=20.0 / qcomp=0.60 / qpmin=0 / qpmax=69 / qpstep=4 / vbv_maxrate=20000 / vbv_bufsize=25000 / crf_max=0.0 / nal_hrd=none / filler=0 / ip_ratio=1.40 / aq=1:1.00
Language : Thai
Default : Yes
Forced : Yes
Color range : Limited
Color primaries : BT.709
Transfer characteristics : BT.709
Matrix coefficients : BT.709
Statistics Tags Issue : mkvmerge v8.3.0 (‘Over the Horizon’) 64bit 2017-03-13 08:25:33 / mkvmerge v8.3.0 (‘Over the Horizon’) 64bit 2017-03-13 08:25:33 / UTC 2017-03-13T06:18:10Z
FromStats_BitRate : 3358877
FromStats_Duration : 01:33:10.458000000
FromStats_FrameCount : 134037
FromStats_StreamSize : 2347208103

Audio #1
ID : 2
Format : AC-3
Format/Info : Audio Coding 3
Format settings, Endianness : Big
Codec ID : A_AC3
Duration : 1 h 33 min
Bit rate mode : Constant
Bit rate : 640 kb/s
Channel(s) : 6 channels
Channel positions : Front: L C R, Side: L R, LFE
Sampling rate : 48.0 kHz
Frame rate : 31.250 FPS (1536 SPF)
Bit depth : 16 bits
Compression mode : Lossy
Stream size : 427 MiB (12%)
Title : Surround
Language : English
Service kind : Complete Main
Default : No
Forced : No
Statistics Tags Issue : mkvmerge v8.3.0 (‘Over the Horizon’) 64bit 2017-03-13 08:25:33 / mkvmerge v8.3.0 (‘Over the Horizon’) 64bit 2017-03-13 08:25:33 / UTC 2017-03-13T06:18:10Z
FromStats_BitRate : 640000
FromStats_Duration : 01:33:10.464000000
FromStats_FrameCount : 174702
FromStats_StreamSize : 447237120

Audio #2
ID : 3
Format : AC-3
Format/Info : Audio Coding 3
Format settings, Endianness : Big
Codec ID : A_AC3
Duration : 1 h 33 min
Bit rate mode : Constant
Bit rate : 640 kb/s
Channel(s) : 6 channels
Channel positions : Front: L C R, Side: L R, LFE
Sampling rate : 48.0 kHz
Frame rate : 31.250 FPS (1536 SPF)
Bit depth : 16 bits
Compression mode : Lossy
Delay relative to video : -5 ms
Stream size : 427 MiB (12%)
Title : Surround
Language : English
Service kind : Complete Main
Default : No
Forced : No
Statistics Tags Issue : mkvmerge v8.3.0 (‘Over the Horizon’) 64bit 2017-03-13 08:25:33 / mkvmerge v8.3.0 (‘Over the Horizon’) 64bit 2017-03-13 08:25:33 / UTC 2017-03-13T06:18:10Z
FromStats_BitRate : 640000
FromStats_Duration : 01:33:10.432000000
FromStats_FrameCount : 174701
FromStats_StreamSize : 447234560

Audio #3
ID : 4
Format : AC-3
Format/Info : Audio Coding 3
Format settings, Endianness : Big
Codec ID : A_AC3
Duration : 1 h 33 min
Bit rate mode : Constant
Bit rate : 640 kb/s
Channel(s) : 6 channels
Channel positions : Front: L C R, Side: L R, LFE
Sampling rate : 48.0 kHz
Frame rate : 31.250 FPS (1536 SPF)
Bit depth : 16 bits
Compression mode : Lossy
Stream size : 427 MiB (12%)
Title : Surround
Language : Thai
Service kind : Complete Main
Default : Yes
Forced : Yes
Statistics Tags Issue : mkvmerge v8.3.0 (‘Over the Horizon’) 64bit 2017-03-13 08:25:33 / mkvmerge v8.3.0 (‘Over the Horizon’) 64bit 2017-03-13 08:25:33 / UTC 2017-03-13T06:18:10Z
FromStats_BitRate : 640000
FromStats_Duration : 01:33:10.464000000
FromStats_FrameCount : 174702
FromStats_StreamSize : 447237120

Text #1
ID : 5
Format : PGS
Muxing mode : zlib
Codec ID : S_HDMV/PGS
Codec ID/Info : Picture based subtitle format used on BDs/HD-DVDs
Language : Thai
Default : Yes
Forced : Yes
Statistics Tags Issue : mkvmerge v8.3.0 (‘Over the Horizon’) 64bit 2017-03-13 08:25:33 / mkvmerge v8.3.0 (‘Over the Horizon’) 64bit 2017-03-13 08:25:33 / UTC 2017-03-13T06:18:10Z
FromStats_BitRate : 12304
FromStats_Duration : 01:32:29.169000000
FromStats_FrameCount : 2192
FromStats_StreamSize : 8535306

Text #2
ID : 6
Format : PGS
Muxing mode : zlib
Codec ID : S_HDMV/PGS
Codec ID/Info : Picture based subtitle format used on BDs/HD-DVDs
Language : English
Default : No
Forced : No
Statistics Tags Issue : mkvmerge v8.3.0 (‘Over the Horizon’) 64bit 2017-03-13 08:25:33 / mkvmerge v8.3.0 (‘Over the Horizon’) 64bit 2017-03-13 08:25:33 / UTC 2017-03-13T06:18:10Z
FromStats_BitRate : 24375
FromStats_Duration : 01:22:17.104000000
FromStats_FrameCount : 2064
FromStats_StreamSize : 15042890

Text #3
ID : 7
Format : PGS
Muxing mode : zlib
Codec ID : S_HDMV/PGS
Codec ID/Info : Picture based subtitle format used on BDs/HD-DVDs
Language : English
Default : No
Forced : No
Statistics Tags Issue : mkvmerge v8.3.0 (‘Over the Horizon’) 64bit 2017-03-13 08:25:33 / mkvmerge v8.3.0 (‘Over the Horizon’) 64bit 2017-03-13 08:25:33 / UTC 2017-03-13T06:18:10Z
FromStats_BitRate : 24375
FromStats_Duration : 01:22:17.104000000
FromStats_FrameCount : 2064
FromStats_StreamSize : 15042890

Menu
00:00:00.000 : :Chapter 1
00:04:47.785 : :Chapter 2
00:08:39.058 : :Chapter 3
00:14:50.679 : :Chapter 4
00:19:51.188 : :Chapter 5
00:24:41.895 : :Chapter 6
00:33:22.331 : :Chapter 7
00:41:11.467 : :Chapter 8
00:44:51.269 : :Chapter 9
00:48:32.449 : :Chapter 10
00:51:31.628 : :Chapter 11
00:53:02.385 : :Chapter 12
00:58:25.958 : :Chapter 13
01:03:13.746 : :Chapter 14
01:05:48.859 : :Chapter 15
01:12:33.847 : :Chapter 16
01:20:00.418 : :Chapter 17
01:23:13.778 : :Chapter 18

DOWNLOAD


PART01 |||| PART02 |||| PART03 |||| PART04

PART01 |||| PART02 |||| PART03 |||| PART04

PART01 |||| PART02 |||| PART03 |||| PART04

PART01 |||| PART02 |||| PART03 |||| PART04

PART01 |||| PART02 |||| PART03 |||| PART04


2 Comments
  1. MaxXam
    MaxXam says

    ลิ้งโหลดไม่ได้ครับ

    1. Admin
      Admin says

      แก้ไขเรียบร้อยฮ๊ะ

Leave A Reply

อีเมล์ของคุณจะไม่แสดงให้เห็น Your email address will not be published.

%d bloggers like this: