[MINI-HD] Seraphim Falls (2006) ล่าสุดขอบนรก [1080p] [พากย์ไทย DTS + เสียงอังกฤษ DTS] [บรรยายไทย + อังกฤษ] [เสียงไทย + ซับไทย] [PANDAFILE]

2

Seraphim Falls (2006) ล่าสุดขอบนรก

โหลดหนัง Seraphim Falls (2006) ล่าสุดขอบนรก

Seraphim Falls | April 13, 2007 (Taiwan) Summary: At the end of the Civil War, a colonel hunts down a man with whom he has a grudge.
Countries: United StatesLanguages: English

เรื่องย่อ Seraphim Falls (2006) ล่าสุดขอบนรก

เหตุการณ์เกิดขึ้นในยุค 1860 ชาย 5 คน สะกดรอยชายผู้หนึ่งเดินทางสู่เนวาดากับเวลามากกว่า 2 สัปดาห์ พวกเขายิงชายหนุ่มได้รับบาดเจ็บแต่ว่าชายคนนี้กลับหนีรอดไปได้ การไล่ล่าเกิดขึ้นโดยมี คาร์เวอร์ (เลียม นีสัน) เป็นผู้นำ ส่วนผู้ถูกไล่ล่ามีนามว่า กิเดียน (เพียร์ซ บรอสแนน) เหตุผลของการล่าครั้งนี้คืออะไร สองคนนี้มีความเกี่ยวพันอย่างไรกันแน่ ต่อจากนี้อะไรกันที่จะเกิดขึ้นที่ เซราฟิม ฟอลส์

Complete name : [MINI-HD]_Seraphim.Falls.2006.1080p.Blu-ray.DTS.x264.One2loadup.com.mkv
Format : Matroska
Format version : Version 4 / Version 2
File size : 8.71 GiB
Duration : 1 h 51 min
Overall bit rate : 11.1 Mb/s
Movie name : [MINI-HD]_Seraphim.Falls.2006.1080p.Blu-ray.DTS.x264.One2loadup.com
Encoded date : UTC 2017-06-21 03:36:25
Writing application : mkvmerge v11.0.0 (‘Alive’) 64bit
Writing library : libebml v1.3.4 + libmatroska v1.4.5

Video
ID : 1
Format : AVC
Format/Info : Advanced Video Codec
Format profile : [email protected]
Format settings, CABAC : Yes
Format settings, RefFrames : 3 frames
Codec ID : V_MPEG4/ISO/AVC
Duration : 1 h 51 min
Bit rate : 8 500 kb/s
Width : 1 920 pixels
Height : 1 080 pixels
Display aspect ratio : 16:9
Frame rate mode : Constant
Frame rate : 23.976 FPS
Color space : YUV
Chroma subsampling : 4:2:0
Bit depth : 8 bits
Scan type : Progressive
Bits/(Pixel*Frame) : 0.171
Stream size : 6.35 GiB (73%)
Title : [MINI-HD]_Seraphim.Falls.2006.1080p.Blu-ray.DTS.x264.One2loadup.com
Writing library : x264 core 86 r1442M 781d300
Encoding settings : cabac=1 / ref=3 / deblock=1:0:0 / analyse=0x3:0x133 / me=dia / subme=5 / psy=1 / psy_rd=0.00:0.00 / mixed_ref=1 / me_range=16 / chroma_me=1 / trellis=0 / 8x8dct=1 / cqm=0 / deadzone=21,11 / fast_pskip=1 / chroma_qp_offset=0 / threads=4 / sliced_threads=0 / nr=0 / decimate=1 / interlaced=0 / constrained_intra=0 / bframes=3 / b_pyramid=1 / b_adapt=0 / b_bias=0 / direct=3 / wpredb=1 / wpredp=0 / keyint=230 / keyint_min=23 / scenecut=40 / intra_refresh=0 / rc_lookahead=40 / rc=abr / mbtree=1 / bitrate=8500 / ratetol=0.2 / qcomp=0.60 / qpmin=10 / qpmax=51 / qpstep=4 / ip_ratio=1.41 / aq=1:1.00 / pulldown=0
Language : English
Default : No
Forced : No

Audio #1
ID : 2
Format : DTS
Format/Info : Digital Theater Systems
Mode : 16
Format settings, Endianness : Big
Codec ID : A_DTS
Duration : 1 h 51 min
Bit rate mode : Constant
Bit rate : 1 510 kb/s
Channel(s) : 6 channels
Channel positions : Front: L C R, Side: L R, LFE
Sampling rate : 48.0 kHz
Frame rate : 93.750 FPS (512 SPF)
Bit depth : 24 bits
Compression mode : Lossy
Delay relative to video : 22 ms
Stream size : 1.17 GiB (13%)
Title : DTS
Language : Thai
Default : Yes
Forced : No

Audio #2
ID : 3
Format : DTS
Format/Info : Digital Theater Systems
Mode : 16
Format settings, Endianness : Big
Codec ID : A_DTS
Duration : 1 h 51 min
Bit rate mode : Constant
Bit rate : 1 509 kb/s
Channel(s) : 6 channels
Channel positions : Front: L C R, Side: L R, LFE
Sampling rate : 48.0 kHz
Frame rate : 93.750 FPS (512 SPF)
Bit depth : 16 bits
Compression mode : Lossy
Delay relative to video : 11 ms
Stream size : 1.18 GiB (14%)
Title : DTS
Language : English
Default : No
Forced : No

Text #1
ID : 4
Format : VobSub
Muxing mode : zlib
Codec ID : S_VOBSUB
Codec ID/Info : Picture based subtitle format used on DVDs
Duration : 1 h 44 min
Bit rate : 1 739 b/s
Count of elements : 524
Stream size : 1.30 MiB (0%)
Title : Thai 1080p
Language : Thai
Default : No
Forced : No

Text #2
ID : 5
Format : VobSub
Muxing mode : zlib
Codec ID : S_VOBSUB
Codec ID/Info : Picture based subtitle format used on DVDs
Duration : 1 h 39 min
Bit rate : 1 843 b/s
Count of elements : 542
Stream size : 1.31 MiB (0%)
Title : English 1080p
Language : English
Default : No
Forced : No

Seraphim Falls (2006) ล่าสุดขอบนรก

DOWNLOAD


PART01 |||| PART02 |||| PART03 |||| PART04 |||| PART05

PART01 |||| PART02 |||| PART03 |||| PART04 |||| PART05

PART01 |||| PART02 |||| PART03 |||| PART04 |||| PART05

PART01 |||| PART02 |||| PART03 |||| PART04 |||| PART05

PART01 |||| PART02 |||| PART03 |||| PART04 |||| PART05


2 Comments
  1. เหน่ง คร้าบ

    โหลดไม่ได้ซักไฟล์เลยครับ

    1. Admin
      Admin says

      แก้ไขเรียบร้อยฮ๊ะ

Leave A Reply

อีเมล์ของคุณจะไม่แสดงให้เห็น Your email address will not be published.

%d bloggers like this: