[MINI-HD] Rocky IV (1985) ร็อคกี้ ราชากำปั้น ทุบสังเวียน ภาค 4 [720p] [พากย์ไทย 2.0 + เสียงอังกฤษ 5.1] [บรรยายไทย + อังกฤษ] [เสียงไทย + ซับไทย] [OPENLOAD]

0

Rocky IV (1985)

โหลดหนัง Rocky IV (1985) ร็อคกี้ ราชากำปั้น ทุบสังเวียน ภาค 4

Rocky IV (1985) 1h 31min | Drama, Sport | 20 March 1986 (Netherlands) Summary: Rocky Balboa proudly holds the world heavyweight boxing championship, but a new challenger has stepped forward: Drago, a six-foot-four, 261-pound fighter who has the backing of the Soviet Union.
Countries: USALanguages: English, Russian

เรื่องย่อ Rocky IV (1985) ร็อคกี้ ราชากำปั้น ทุบสังเวียน ภาค 4

สองขั้วอำนาจต้องมาปะชันกันเมื่อ ร็อคกี้ พบกับนักชกโซเวียต ผู้ซึ่งชกคู่แข่งคนล่าสุดของเขาตายคาสังเวียน! ซิลเวสเตอร์ สตอลโลน เขียนบท กำกับ และแสดงนำในสงครามระหว่างสองประเทศ ที่ไม่ได้สู้เพื่อชัยชนะบนสังเวียนเท่านั้น แต่ร็อคกี้ต้องสู้โดยมีศักดิ์ศรี มิตรภาพ และประเทศชาติเป็นเดิมพันร็อคกี้กลายเป็นแชมป์เปี้ยนโลกรุ่นเฮฟวี่เวทผู้ยิ่งใ หญ่ แต่ผู้ท้าชิงรายใหม่ก็ไล่ตามเขามาแบบหายใจรดต้นคอ ดราโก้ (ดอล์ฟ ลันด์เกร็น) เจ้าของส่วนสูง 6 ฟุต 4 นิ้ว
น้ำหนัก 261 ปอนด์ นักสู้ผู้มีประเทศรัสเซียอยู่เบื้องหลัง เมื่อ อพอลโล่ ครีด (คาร์ล เวียเธอร์ส) เพื่อนของร็อคกี้ชกกับดราโก้ในนัดอุ่นเครื่อง ร็อคกี้ได้ความตายของครีดเป็นของตอบแทนเขารู้ว่ามีเพียงชัยชนะเท่านั้นที่จะช่วยปกป้องประเท ศ และล้างแค้นให้เพื่อนได้ เทรนเนอร์ของ ร็อคกี้ จึงส่งเขาไปยังไซบีเรียเพื่อเตรียมรับมือในศึกสะท้าน โลกที่จัดกลางกรุงมอสโคว นี่คืนตำนานอันยิ่งใหญ่เรื่องล่าสุดของร็อคกี้ ซึ่งมีดราโก้มาร่วมสร้างความมันสะท้านใจตั้งแต่ต้นจน จบ

Complete name : [MINI-HD]_4.Rocky.IV.1985.720p.BluRay.AC3.x264.One2loadup.com.mkv
Format : Matroska
Format version : Version 4
File size : 1.81 GiB
Duration : 1 h 31 min
Overall bit rate : 2 832 kb/s
Movie name : [MINI-HD]_4.Rocky.IV.1985.720p.BluRay.AC3.x264.One2loadup.com
Encoded date : UTC 2013-02-09 15:15:22
Writing application : mkvmerge v6.0.0 (‘Coming Up For Air’) built on Jan 20 2013 09:52:00
Writing library : libebml v1.3.0 + libmatroska v1.4.0

Video
ID : 1
Format : AVC
Format/Info : Advanced Video Codec
Format profile : [email protected]
Format settings : CABAC / 6 Ref Frames
Format settings, CABAC : Yes
Format settings, ReFrames : 6 frames
Codec ID : V_MPEG4/ISO/AVC
Duration : 1 h 31 min
Bit rate : 2 200 kb/s
Width : 1 280 pixels
Height : 688 pixels
Display aspect ratio : 1.85:1
Frame rate mode : Constant
Frame rate : 23.976 (24000/1001) FPS
Color space : YUV
Chroma subsampling : 4:2:0
Bit depth : 8 bits
Scan type : Progressive
Bits/(Pixel*Frame) : 0.104
Stream size : 1.39 GiB (77%)
Title : [MINI-HD]_4.Rocky.IV.1985.720p.BluRay.AC3.x264.One2loadup.com
Writing library : x264 core 112
Encoding settings : cabac=1 / ref=6 / deblock=1:0:0 / analyse=0x3:0x113 / me=hex / subme=9 / psy=1 / psy_rd=1.00:0.00 / mixed_ref=0 / me_range=16 / chroma_me=1 / trellis=1 / 8x8dct=1 / cqm=0 / deadzone=21,11 / fast_pskip=1 / chroma_qp_offset=-2 / threads=9 / sliced_threads=0 / nr=0 / decimate=1 / interlaced=0 / constrained_intra=0 / bframes=5 / b_pyramid=2 / b_adapt=2 / b_bias=0 / direct=1 / weightb=0 / open_gop=0 / weightp=2 / keyint=240 / keyint_min=23 / scenecut=40 / intra_refresh=0 / rc_lookahead=40 / rc=abr / mbtree=1 / bitrate=2200 / ratetol=1.0 / qcomp=0.60 / qpmin=3 / qpmax=51 / qpstep=4 / ip_ratio=1.40 / aq=1:1.00
Language : English
Default : Yes
Forced : No
Color range : Limited
Color primaries : BT.709
Transfer characteristics : BT.709
Matrix coefficients : BT.709

Audio #1
ID : 2
Format : AC-3
Format/Info : Audio Coding 3
Commercial name : Dolby Digital
Codec ID : A_AC3
Duration : 1 h 31 min
Bit rate mode : Constant
Bit rate : 224 kb/s
Channel(s) : 2 channels
Channel layout : L R
Sampling rate : 48.0 kHz
Frame rate : 31.250 FPS (1536 SPF)
Bit depth : 16 bits
Compression mode : Lossy
Stream size : 147 MiB (8%)
Title : Thai AC3 2.0 at 224 Kbps
Language : Thai
Service kind : Complete Main
Default : Yes
Forced : No

Audio #2
ID : 3
Format : AC-3
Format/Info : Audio Coding 3
Commercial name : Dolby Digital
Codec ID : A_AC3
Duration : 1 h 31 min
Bit rate mode : Constant
Bit rate : 384 kb/s
Channel(s) : 6 channels
Channel layout : L R C LFE Ls Rs
Sampling rate : 48.0 kHz
Frame rate : 31.250 FPS (1536 SPF)
Bit depth : 16 bits
Compression mode : Lossy
Stream size : 251 MiB (14%)
Title : English AC3 5.1 at 384 Kbps
Language : English
Service kind : Complete Main
Default : No
Forced : No

Text #1
ID : 4
Format : VobSub
Muxing mode : zlib
Codec ID : S_VOBSUB
Codec ID/Info : Picture based subtitle format used on DVDs
Title : Thai 480p
Language : Thai
Default : Yes
Forced : No

Text #2
ID : 5
Format : VobSub
Muxing mode : zlib
Codec ID : S_VOBSUB
Codec ID/Info : Picture based subtitle format used on DVDs
Title : Thai 1080p
Language : Thai
Default : No
Forced : No

Text #3
ID : 6
Format : VobSub
Muxing mode : zlib
Codec ID : S_VOBSUB
Codec ID/Info : Picture based subtitle format used on DVDs
Title : Thai 1080p Under
Language : Thai
Default : No
Forced : No

Text #4
ID : 7
Format : PGS
Muxing mode : zlib
Codec ID : S_HDMV/PGS
Codec ID/Info : Picture based subtitle format used on BDs/HD-DVDs
Title : Thai PGS
Language : Thai
Default : No
Forced : No

Text #5
ID : 8
Format : VobSub
Muxing mode : zlib
Codec ID : S_VOBSUB
Codec ID/Info : Picture based subtitle format used on DVDs
Title : English 1080p
Language : English
Default : No
Forced : No

Text #6
ID : 9
Format : VobSub
Muxing mode : zlib
Codec ID : S_VOBSUB
Codec ID/Info : Picture based subtitle format used on DVDs
Title : English 1080p Under
Language : English
Default : No
Forced : No

Text #7
ID : 10
Format : PGS
Muxing mode : zlib
Codec ID : S_HDMV/PGS
Codec ID/Info : Picture based subtitle format used on BDs/HD-DVDs
Title : English PGS
Language : English
Default : No
Forced : No

Text #8
ID : 11
Format : UTF-8
Codec ID : S_TEXT/UTF8
Codec ID/Info : UTF-8 Plain Text
Title : English SRT
Language : English
Default : No
Forced : No

DOWNLOAD


PART01 |||| PART02

PART01 |||| PART02

PART01 |||| PART02

PART01 |||| PART02


Leave A Reply

Your email address will not be published.

%d bloggers like this: