[MINI-HD] Rocky Balboa (2006) ร็อคกี้ ราชากำปั้น…ทุบสังเวียน ภาค 6 [720p] [พากย์ไทย 5.1 + เสียงอังกฤษ 5.1] [บรรยายไทย + อังกฤษ] [เสียงไทย + ซับไทย] [OPENLOAD]

0

Rocky Balboa (2006)

โหลดหนัง Rocky Balboa (2006) ร็อคกี้ ราชากำปั้น…ทุบสังเวียน ภาค 6

Rocky Balboa (2006) 1h 42min | Drama, Sport | 18 January 2007 (Netherlands) Summary: Thirty years after the ring of the first bell, Rocky Balboa comes out of retirement and dons his gloves for his final fight; against the reigning heavyweight champ Mason 'The Line' Dixon.
Countries: USALanguages: English, Spanish

เรื่องย่อ Rocky Balboa (2006) ร็อคกี้ ราชากำปั้น…ทุบสังเวียน ภาค 6

เมื่อสามสิบปีก่อน เขาก็เป็นแค่ชายไร้อนาคตที่ทำงานให้เจ้าหนี้ปล่อยเงิ นกู้รายเล็ก ๆ ในย่านเซ้าธ์ไซด์ของฟิลาเดลเฟีย แล้วจู่ ๆ ชะตาฟ้าลิขิตให้ได้ขึ้นชกกับ อพอลโล ครีด
แชมป์โลกผู้เกรียงไกร นั่นเป็นเสี้ยวนาทีแห่งชีวิตที่มีโอกาสแค่หนึ่งในล้า นเลยทีเดียว ซึ่งก็เขาต้องการเพียงแค่จะประสบความสำเร็จขั้นสุดยอ ดเท่านั้น ความกล้าหาญกับความอดทนของเขา ทั้งในการดำรงชีวิตและ บนสังเวียนผืนผ้าใบเป็นตัวอย่างแห่งความหวังให้กับผู ้คนนับล้านชีวิต บัดนี้วันเวลาที่รุ่งโรจน์ถึงขีดสุดของร็อคกี้ บัลบัว (ซิลเวสเตอร์ สตอลโลน) ได้ล่วงเลยผ่านไปแล้ว จากที่ครั้งหนึ่งเคยเป็นอิตาเลี่ยนจอมแกร่ง ก็เหลือเพียงความทรงจำเด็ด ๆ ไว้เล่าให้ลูกค้าร้านอาหารของเขาฟังทุกค่ำคืน ร้าน Adrian’s ที่เขาตั้งชื่อตามชื่อของภรรยาที่เสียชีวิตไปแล้วแต่ เขาก็ยังไม่อาจตัดใจได้ เสียที ในขณะที่ลูกชายหัวแก้วหัวแหวน (ไมโล เวนทิมิเกลีย) ก็ไม่ค่อยสุงสิงกับพ่อสักเท่าไหร่ เขาพยายามจะก่อร่างสร้างตัวให้ยืนอยู่ได้ด้วยลำแข้งของตัวเองจนแทบไม่มีเวลา ว่างเอาเสียเลย ทั้งสังขารที่แก่ตัวลงทุกวัน และผลจากการกรำศึกมานับสังเวียนไม่ถ้วน ทำให้ ร็อคกี้ ทุกวันนี้ไม่สง่าผ่าเผยเหมือนเก่า หมัดก็ไม่หนักดังเดิม เดินไปไหนมาไหนก็ไหล่ห่อ จนแทบไม่เหลือเค้าลางแห่งวันที่เคยเกรียงไกร หากจะมีหลงเหลืออยู่บ้างก็แค่เพียงเรื่องเก่า ๆ  เล่าขานไปวัน ๆ แต่ลึกลงไปในใจแล้วเขาก็ยังคงเป็นคนเดิมไม่เปลี่ยนแป ลงในใจของเขาแล้ว ร็อคกี้ยังคงเป็นนักสู้อยู่ตลอดเวลา เมสัน “เดอะ ไลน์” (แอนโทนิโอ ทาร์เวอร์) ดิ๊กซ่อนเป็นนักชกเจ้าของตำแหน่งแชมเปี้ยนรุ่นเฮฟวี่ เวทที่ได้มาจากการชกกับ คู่ต่อสู้ที่ไม่เก่งกาจนัก จนแทบไม่ได้พิสูจน์ผีไม้ลายมือในสังเวียนเอาเลย เพราะไม่เคยเจอกับคู่ชกที่กระดูกมวยพอฟัดพอเหวี่ยงเล ยสักคน ดิ๊กซ่อนจึงเป็นแค่นักชกมีศิลปะเชิงมวยเพียบพร้อมแต่ ไม่ได้ใจแฟนมวยเลยสัก นิดเดียว นั่นก็เท่ากับไร้อนาคตในวงการกีฬาโดยสิ้นเชิง… แล้วก็เกิดศึกเสมือนจริงที่อาศัยคอมพิวเตอร์สร้างสถานการณ์ให้เขาได้เปรียบ เชิงมวยกับ ร็อคกี้ บัลบัว สมัยที่นักชกผู้เกรียงไกรยังรุ่งโรจน์ ถ้าจับทั้งคู่มาดวลหมัดกันใครจะเป็นเจ้าสังเวียน ระหว่าง ดิ๊กซ่อนลีลาแย็บและฟุตเวิร์คสุดเฉียบ กับ ร็อคกี้ใจแกร่งแรงไม่มีถอย ผู้จัดการของดิ๊กซ่อนก็คิดได้ว่า นี่จะเป็นวิธีเรียกศรัทธาจากแฟนมวยได้เป็นอย่างดี แล้วผู้คนน่าจะหันมาสนใจการชกชิงแชมป์เฮฟวี่เวทกันอีกครั้ง จากแนวคิดที่เป็นเพียงเรื่องขำ ๆ คิดกันไปได้ กลายเป็นศึกชิงเจ้าสังเวียนที่ดึงให้ ร็อคกี้ ซึ่งอายุอานามมากกว่า ดิ๊กซ่อน คู่ชกหนุ่ม เกือบ 2 เท่า ได้กลับขึ้นสังเวียนที่เขาเองก็คิดไม่ถึงว่าจะได้โอกาสอีกครั้ง และเป็นโอกาสหนึ่งในล้านที่จะพิสูจน์ตัวเอง และให้คนที่เขารักได้ประจักษ์ว่า ถึงสังขารจะชราแต่จิตใจกลับแกร่งกว่าเดิม

Complete name : [MINI-HD]_6.Rocky.Balboa.2006.720p.BluRay.AC3.x264.One2loadup.com.mkv
Format : Matroska
Format version : Version 4
File size : 2.18 GiB
Duration : 1 h 41 min
Overall bit rate : 3 071 kb/s
Movie name : [MINI-HD]_6.Rocky.Balboa.2006.720p.BluRay.AC3.x264.One2loadup.com
Encoded date : UTC 2013-02-09 15:49:02
Writing application : mkvmerge v6.0.0 (‘Coming Up For Air’) built on Jan 20 2013 09:52:00
Writing library : libebml v1.3.0 + libmatroska v1.4.0

Video
ID : 1
Format : AVC
Format/Info : Advanced Video Codec
Format profile : [email protected]
Format settings : CABAC / 6 Ref Frames
Format settings, CABAC : Yes
Format settings, ReFrames : 6 frames
Codec ID : V_MPEG4/ISO/AVC
Duration : 1 h 41 min
Bit rate : 2 200 kb/s
Width : 1 280 pixels
Height : 688 pixels
Display aspect ratio : 1.85:1
Frame rate mode : Constant
Frame rate : 23.976 (24000/1001) FPS
Color space : YUV
Chroma subsampling : 4:2:0
Bit depth : 8 bits
Scan type : Progressive
Bits/(Pixel*Frame) : 0.104
Stream size : 1.55 GiB (71%)
Title : [MINI-HD]_6.Rocky.Balboa.2006.720p.BluRay.AC3.x264.One2loadup.com
Writing library : x264 core 112
Encoding settings : cabac=1 / ref=6 / deblock=1:0:0 / analyse=0x3:0x113 / me=hex / subme=9 / psy=1 / psy_rd=1.00:0.00 / mixed_ref=0 / me_range=16 / chroma_me=1 / trellis=1 / 8x8dct=1 / cqm=0 / deadzone=21,11 / fast_pskip=1 / chroma_qp_offset=-2 / threads=9 / sliced_threads=0 / nr=0 / decimate=1 / interlaced=0 / constrained_intra=0 / bframes=5 / b_pyramid=2 / b_adapt=2 / b_bias=0 / direct=1 / weightb=0 / open_gop=0 / weightp=2 / keyint=240 / keyint_min=23 / scenecut=40 / intra_refresh=0 / rc_lookahead=40 / rc=abr / mbtree=1 / bitrate=2200 / ratetol=1.0 / qcomp=0.60 / qpmin=3 / qpmax=51 / qpstep=4 / ip_ratio=1.40 / aq=1:1.00
Language : English
Default : Yes
Forced : No
Color range : Limited
Color primaries : BT.709
Transfer characteristics : BT.709
Matrix coefficients : BT.709

Audio #1
ID : 2
Format : AC-3
Format/Info : Audio Coding 3
Commercial name : Dolby Digital
Codec ID : A_AC3
Duration : 1 h 41 min
Bit rate mode : Constant
Bit rate : 448 kb/s
Channel(s) : 6 channels
Channel layout : L R C LFE Ls Rs
Sampling rate : 48.0 kHz
Frame rate : 31.250 FPS (1536 SPF)
Bit depth : 16 bits
Compression mode : Lossy
Stream size : 326 MiB (15%)
Title : Thai AC3 5.1 at 448 Kbps
Language : Thai
Service kind : Complete Main
Default : Yes
Forced : No

Audio #2
ID : 3
Format : AC-3
Format/Info : Audio Coding 3
Commercial name : Dolby Digital
Codec ID : A_AC3
Duration : 1 h 41 min
Bit rate mode : Constant
Bit rate : 384 kb/s
Channel(s) : 6 channels
Channel layout : L R C LFE Ls Rs
Sampling rate : 48.0 kHz
Frame rate : 31.250 FPS (1536 SPF)
Bit depth : 16 bits
Compression mode : Lossy
Stream size : 280 MiB (13%)
Title : English AC3 5.1 at 384 Kbps
Language : English
Service kind : Complete Main
Default : No
Forced : No

Text #1
ID : 4
Format : VobSub
Muxing mode : zlib
Codec ID : S_VOBSUB
Codec ID/Info : Picture based subtitle format used on DVDs
Title : Thai 480p
Language : Thai
Default : Yes
Forced : No

Text #2
ID : 5
Format : VobSub
Muxing mode : zlib
Codec ID : S_VOBSUB
Codec ID/Info : Picture based subtitle format used on DVDs
Title : Thai 1080p
Language : Thai
Default : No
Forced : No

Text #3
ID : 6
Format : VobSub
Muxing mode : zlib
Codec ID : S_VOBSUB
Codec ID/Info : Picture based subtitle format used on DVDs
Title : Thai 1080p Under
Language : Thai
Default : No
Forced : No

Text #4
ID : 7
Format : PGS
Muxing mode : zlib
Codec ID : S_HDMV/PGS
Codec ID/Info : Picture based subtitle format used on BDs/HD-DVDs
Title : Thai PGS
Language : Thai
Default : No
Forced : No

Text #5
ID : 8
Format : VobSub
Muxing mode : zlib
Codec ID : S_VOBSUB
Codec ID/Info : Picture based subtitle format used on DVDs
Title : English 1080p
Language : English
Default : No
Forced : No

Text #6
ID : 9
Format : VobSub
Muxing mode : zlib
Codec ID : S_VOBSUB
Codec ID/Info : Picture based subtitle format used on DVDs
Title : English 1080p Under
Language : English
Default : No
Forced : No

Text #7
ID : 10
Format : PGS
Muxing mode : zlib
Codec ID : S_HDMV/PGS
Codec ID/Info : Picture based subtitle format used on BDs/HD-DVDs
Title : English PGS
Language : English
Default : No
Forced : No

Text #8
ID : 11
Format : UTF-8
Codec ID : S_TEXT/UTF8
Codec ID/Info : UTF-8 Plain Text
Title : English SRT
Language : English
Default : No
Forced : No

DOWNLOAD


PART01 |||| PART02 |||| PART03

PART01 |||| PART02 |||| PART03

PART01 |||| PART02 |||| PART03

PART01 |||| PART02 |||| PART03


Leave A Reply

Your email address will not be published.

%d bloggers like this: