[MINI-HD] Railway Heroes (2021) รถด่วนขบวนนรก [720p] [พากย์ไทย 2.0] [ไม่มีบรรยาย] [เสียงไทยมาสเตอร์] [USERLOAD]

0

โหลดหนัง Railway Heroes (2021) รถด่วนขบวนนรก

Railway Heroes | November 19, 2021 (China) Summary: The historical story of an enemy fighting the wits and courage of an extraordinary brave group of ordinary heroes known as the "Lunan Railway Brigade" who desperately fight to defend their h... Read all
Countries: ChinaLanguages: Mandarin

เรื่องย่อ Railway Heroes (2021) รถด่วนขบวนนรก

ภาพยนต์จะเล่าช่วงที่ญี่ปุ่นรุกรานจีน มีเหล่าวีรชนที่ยอมสละชีวิตตัวเองเพื่อต่อสู้กับญี่ปุ่น ด้วยความเหลืออดจากการถูกกดขี่โดยกองทัพญี่ปุ่น หงเจิ้นไห่ (จาง ฮั่นหยู) นายช่างรถไฟแห่งสถานีหลิงเฉิงซึ่งมักเป็นต้นทางที่พวกญี่ปุ่นใช้ส่งเสบียงจึงจัดตั้งกลุ่มกองโจรพยัคฆ์เหินเวหาเพื่อปล้นสะดมข้าศึกจนกระทั่งทางพรรคคอมมิวนิสต ์ได้ขอให้หงเจิ้นไห่และพวกดักทำลายขบวนรถไฟที่ขนอาวุธไปเข่นฆ่าพี่น้องชาวจีนงานนี้เหล่าพยัคฆ์เหินเวหาต้องเดิมพันภารกิจนี้ด้วยชีวิตของพวกเขาเองเพื่อเอกราชของมาตุภูมิ

Complete name : [MINI-HD]_Railway.Heroes.2021.720p.WEB-DL.AAC.x264.THM.One2loadup.com.mkv
Format : Matroska
Format version : Version 2
File size : 3.74 GiB
Duration : 2 h 1 min
Overall bit rate : 4 413 kb/s
Movie name : [MINI-HD]_Railway.Heroes.2021.720p.WEB-DL.AAC.x264.THM.One2loadup.com
Encoded date : UTC 2022-10-23 01:50:39
Writing application : DVDFab 12.0.2.3
Writing library : libebml v1.3.4 + libmatroska v1.4.5

Video
ID : 1
Format : AVC
Format/Info : Advanced Video Codec
Format profile : [email protected]
Format settings : CABAC / 1 Ref Frames
Format settings, CABAC : Yes
Format settings, Reference : 1 frame
Format settings, GOP : M=1, N=25
Codec ID : V_MPEG4/ISO/AVC
Duration : 2 h 1 min
Bit rate mode : Constant
Bit rate : 4 282 kb/s
Nominal bit rate : 4 582 kb/s
Width : 1 680 pixels
Height : 944 pixels
Display aspect ratio : 16:9
Frame rate mode : Constant
Frame rate : 25.000 FPS
Color space : YUV
Chroma subsampling : 4:2:0
Bit depth : 8 bits
Scan type : Progressive
Bits/(Pixel*Frame) : 0.108
Stream size : 3.63 GiB (97%)
Title : [MINI-HD]_Railway.Heroes.2021.720p.WEB-DL.AAC.x264.THM.One2loadup.com
Default : Yes
Forced : No
Color range : Limited
Color primaries : BT.709
Transfer characteristics : BT.709
Matrix coefficients : BT.709

Audio
ID : 2
Format : AAC LC
Format/Info : Advanced Audio Codec Low Complexity
Codec ID : A_AAC-2
Duration : 2 h 1 min
Bit rate : 128 kb/s
Channel(s) : 2 channels
Channel layout : L R
Sampling rate : 44.1 kHz
Frame rate : 43.066 FPS (1024 SPF)
Compression mode : Lossy
Stream size : 111 MiB (3%)
Default : Yes
Forced : No

DOWNLOAD


PART01 |||| PART02 |||| PART03 |||| PART04

PART01 |||| PART02 |||| PART03 |||| PART04

PART01 |||| PART02 |||| PART03 |||| PART04

PART01 |||| PART02 |||| PART03 |||| PART04

PART01 |||| PART02 |||| PART03 |||| PART04


Leave A Reply

อีเมล์ของคุณจะไม่แสดงให้เห็น Your email address will not be published.

%d bloggers like this: